<?xml version="1.0" standalone="no"?>
<!DOCTYPE svg PUBLIC "-//W3C//DTD SVG 1.1//EN" "http://www.w3.org/Graphics/SVG/1.1/DTD/svg11.dtd" >
<svg xmlns="http://www.w3.org/2000/svg" xmlns:xlink="http://www.w3.org/1999/xlink" version="1.1">
<metadata>
Created by FontForge 20170924 at Sun Mar  7 20:33:33 2010
 By www-data
Copyright (c) 2009 by Margaret Calvert &#38; Henrik Kubel. All rights reserved.
</metadata>
<defs>
<font id="NewRailAlphabet-Bold" horiz-adv-x="258" >
  <font-face 
    font-family="New Rail Alphabet Bold"
    font-weight="700"
    font-stretch="normal"
    units-per-em="1000"
    panose-1="2 0 5 3 4 0 0 2 0 4"
    ascent="800"
    descent="-200"
    x-height="548"
    cap-height="700"
    bbox="-70 -319 1221 1020"
    underline-thickness="50"
    underline-position="-100"
    stemh="112"
    stemv="135"
    unicode-range="U+0020-FB04"
  />
<missing-glyph horiz-adv-x="570" 
d="M55 0v700h460v-700h-460zM120 54h330v592h-330v-592z" />
    <glyph glyph-name="ffl" unicode="ffl" horiz-adv-x="929" 
d="M674 435h-117v-435h-135v435h-182v-435h-135v435h-90v113h90v57c0 88 49 135 148 135c54 0 104 -2 104 -2v-117s-32 2 -67 2c-26 0 -50 -3 -50 -37v-38h182v64c0 88 49 135 148 135c54 0 104 -2 104 -2v-117s-32 2 -67 2c-26 0 -50 -3 -50 -37v-45h117v-113zM874 0h-135
v740h135v-740z" />
    <glyph glyph-name="fl" unicode="fl" horiz-adv-x="612" 
d="M357 435h-117v-435h-135v435h-90v113h90v64c0 88 49 135 148 135c54 0 104 -2 104 -2v-117s-32 2 -67 2c-26 0 -50 -3 -50 -37v-45h117v-113zM557 0h-135v740h135v-740z" />
    <glyph glyph-name="fi" unicode="fi" horiz-adv-x="612" 
d="M357 435h-117v-435h-135v435h-90v113h90v64c0 88 49 135 148 135c54 0 104 -2 104 -2v-117s-32 2 -67 2c-26 0 -50 -3 -50 -37v-45h117v-113zM557 611h-135v129h135v-129zM557 0h-135v548h135v-548z" />
    <glyph glyph-name="ff" unicode="ff" horiz-adv-x="684" 
d="M674 435h-117v-435h-135v435h-182v-435h-135v435h-90v113h90v57c0 88 49 135 148 135c54 0 104 -2 104 -2v-117s-32 2 -67 2c-26 0 -50 -3 -50 -37v-38h182v64c0 88 49 135 148 135c54 0 104 -2 104 -2v-117s-32 2 -67 2c-26 0 -50 -3 -50 -37v-45h117v-113z" />
    <glyph glyph-name="ffi" unicode="ffi" horiz-adv-x="929" 
d="M874 611h-135v129h135v-129zM874 0h-135v548h135v-548zM674 435h-117v-435h-135v435h-182v-435h-135v435h-90v113h90v57c0 88 49 135 148 135c54 0 104 -2 104 -2v-117s-32 2 -67 2c-26 0 -50 -3 -50 -37v-38h182v64c0 88 49 135 148 135c54 0 104 -2 104 -2v-117
s-32 2 -67 2c-26 0 -50 -3 -50 -37v-45h117v-113z" />
    <glyph glyph-name=".notdef" horiz-adv-x="570" 
d="M55 0v700h460v-700h-460zM120 54h330v592h-330v-592z" />
    <glyph glyph-name="space" unicode=" " horiz-adv-x="210" 
 />
    <glyph glyph-name="exclam" unicode="!" 
d="M197 223h-136l-6 477h148zM203 0h-148v148h148v-148z" />
    <glyph glyph-name="quotedbl" unicode="&#x22;" horiz-adv-x="444" 
d="M55 386v314h138l-20 -314h-118zM251 386v314h138l-20 -314h-118z" />
    <glyph glyph-name="numbersign" unicode="#" horiz-adv-x="730" 
d="M420 0v195h-110v-195h-110v195h-145v100h145v110h-145v100h145v195h110v-195h110v195h110v-195h145v-100h-145v-110h145v-100h-145v-195h-110zM310 405v-110h110v110h-110z" />
    <glyph glyph-name="dollar" unicode="$" horiz-adv-x="629" 
d="M574 214c0 -136 -101 -212 -225 -220v-100h-62v99c-130 3 -228 79 -232 226h133c0 -67 39 -105 99 -113v183c-59 11 -123 26 -166 67c-31 29 -55 74 -55 140c0 128 109 195 221 203v90h62v-91c113 -9 205 -65 214 -213h-132c-3 32 -11 85 -82 99v-173
c108 -20 225 -60 225 -197zM441 199c0 47 -39 65 -92 78v-171c46 7 92 31 92 93zM201 505c0 -49 35 -68 86 -81v163c-59 -6 -86 -37 -86 -82z" />
    <glyph glyph-name="percent" unicode="%" horiz-adv-x="890" 
d="M736 697l-471 -697h-107l470 697h108zM226 319c-57 0 -171 23 -171 191c0 165 114 190 171 190c58 0 172 -25 172 -190c0 -168 -114 -191 -172 -191zM226 618c-41 0 -70 -35 -70 -108c0 -82 29 -109 70 -109c42 0 70 27 70 109c0 73 -28 108 -70 108zM663 -7
c-57 0 -171 24 -171 191c0 166 114 190 171 190c58 0 172 -24 172 -190c0 -167 -114 -191 -172 -191zM663 292c-41 0 -69 -33 -69 -108c0 -81 28 -109 69 -109c42 0 70 28 70 109c0 75 -28 108 -70 108z" />
    <glyph glyph-name="ampersand" unicode="&#x26;" horiz-adv-x="691" 
d="M651 0h-70c-55 0 -80 32 -100 57c-57 -50 -118 -64 -197 -64c-155 0 -244 103 -244 222c0 80 41 151 130 195c-23 27 -49 76 -49 129c0 101 83 168 184 168c137 0 180 -93 180 -158c0 -85 -59 -143 -127 -175l122 -136c11 22 17 73 17 100h125c0 -84 -19 -141 -56 -195
c16 -19 32 -36 56 -36h29v-107zM364 548c0 28 -21 56 -60 56s-60 -30 -60 -61c0 -28 18 -61 42 -85c42 18 78 48 78 90zM401 140l-161 182c-46 -23 -64 -58 -64 -97c0 -79 60 -118 123 -118c36 0 75 10 102 33z" />
    <glyph glyph-name="quotesingle" unicode="'" horiz-adv-x="248" 
d="M55 386v314h138l-20 -314h-118z" />
    <glyph glyph-name="parenleft" unicode="(" horiz-adv-x="341" 
d="M40 294c0 182 85 356 156 446h135c-61 -79 -151 -258 -151 -446s90 -368 151 -447h-135c-71 90 -156 265 -156 447z" />
    <glyph glyph-name="parenright" unicode=")" horiz-adv-x="341" 
d="M301 294c0 -182 -85 -357 -156 -447h-135c61 79 151 259 151 447s-90 367 -151 446h135c71 -90 156 -264 156 -446z" />
    <glyph glyph-name="asterisk" unicode="*" horiz-adv-x="642" 
d="M385 700l-13 -192l178 71l37 -123l-179 -45l134 -155l-98 -76l-123 176l-123 -176l-98 76l134 155l-179 45l37 123l178 -71l-13 192h128z" />
    <glyph glyph-name="plus" unicode="+" horiz-adv-x="683" 
d="M400 639v-232h228v-116h-228v-233h-118v233h-227v116h227v232h118z" />
    <glyph glyph-name="comma" unicode="," 
d="M203 148v-146c0 -40 -3 -114 -114 -114h-27v61c33 0 45 3 45 28v23h-52v148h148z" />
    <glyph glyph-name="hyphen" unicode="-" horiz-adv-x="390" 
d="M335 240h-280v116h280v-116z" />
    <glyph glyph-name="period" unicode="." 
d="M203 0h-148v148h148v-148z" />
    <glyph glyph-name="slash" unicode="/" horiz-adv-x="351" 
d="M326 700l-238 -791h-73l238 791h73z" />
    <glyph glyph-name="zero" unicode="0" horiz-adv-x="598" 
d="M299 -11c-112 0 -259 61 -259 357s147 358 259 358s259 -62 259 -358s-147 -357 -259 -357zM299 589c-58 0 -119 -38 -119 -243c0 -206 61 -242 119 -242s119 36 119 242c0 205 -61 243 -119 243z" />
    <glyph glyph-name="one" unicode="1" horiz-adv-x="347" 
d="M287 692v-692h-141v502h-106v119h56c43 0 69 10 72 71h119z" />
    <glyph glyph-name="two" unicode="2" horiz-adv-x="569" 
d="M297 704c144 0 237 -88 237 -213c0 -99 -44 -161 -119 -222l-186 -152h305v-117h-477v127l265 220c70 58 78 99 78 143c0 58 -44 97 -106 97c-59 0 -120 -28 -120 -139h-134c0 146 81 256 257 256z" />
    <glyph glyph-name="three" unicode="3" horiz-adv-x="579" 
d="M282 -11c-177 0 -257 99 -257 234h135c1 -90 56 -121 125 -121c81 0 118 46 118 100c0 68 -54 91 -122 91h-53v114h44c87 0 121 36 121 93c0 46 -31 91 -105 91s-120 -39 -120 -129h-131c0 150 97 242 252 242c148 0 234 -80 234 -193c0 -73 -35 -132 -107 -154
c75 -12 123 -77 123 -150c0 -120 -79 -218 -257 -218z" />
    <glyph glyph-name="four" unicode="4" horiz-adv-x="587" 
d="M567 144h-81v-144h-133v144h-333v116l283 432h183v-438h81v-110zM353 254v321l-212 -321h212z" />
    <glyph glyph-name="five" unicode="5" horiz-adv-x="590" 
d="M58 294l22 400h442v-119h-331l-9 -151c19 21 69 50 141 50c146 0 232 -97 232 -228c0 -149 -87 -256 -266 -256c-196 0 -247 139 -249 208h139c5 -44 39 -96 114 -96c82 0 127 54 127 134c0 75 -42 127 -120 127c-76 0 -106 -48 -116 -73z" />
    <glyph glyph-name="six" unicode="6" horiz-adv-x="597" 
d="M322 704c191 0 226 -141 228 -189h-133c-4 32 -29 77 -103 77c-101 0 -138 -96 -143 -200c26 33 82 71 167 71c109 0 219 -71 219 -228c0 -145 -100 -246 -252 -246c-151 0 -265 100 -265 332c0 170 54 383 282 383zM192 228c0 -74 44 -124 115 -124c72 0 115 51 115 124
s-42 124 -114 124c-71 0 -116 -50 -116 -124z" />
    <glyph glyph-name="seven" unicode="7" horiz-adv-x="531" 
d="M370 573h-340v118h486v-110l-268 -581h-151z" />
    <glyph glyph-name="eight" unicode="8" horiz-adv-x="594" 
d="M297 -11c-152 0 -262 75 -262 211c0 90 57 145 112 164c-51 20 -96 73 -96 145c0 132 112 195 246 195s245 -63 245 -195c0 -72 -44 -125 -95 -145c55 -19 112 -74 112 -164c0 -136 -110 -211 -262 -211zM297 307c-78 0 -124 -40 -124 -100c0 -59 47 -104 124 -104
s124 45 124 104c0 60 -46 100 -124 100zM297 597c-68 0 -118 -31 -118 -90c0 -52 37 -94 118 -94s118 42 118 94c0 59 -50 90 -118 90z" />
    <glyph glyph-name="nine" unicode="9" horiz-adv-x="597" 
d="M275 -11c-191 0 -226 141 -228 189h133c4 -32 29 -77 103 -77c101 0 139 93 140 197c-27 -33 -85 -68 -164 -68c-109 0 -219 71 -219 228c0 145 100 246 252 246c151 0 265 -116 265 -328c0 -176 -49 -387 -282 -387zM405 465c0 74 -44 124 -115 124
c-72 0 -115 -51 -115 -124s42 -124 114 -124c71 0 116 50 116 124z" />
    <glyph glyph-name="colon" unicode=":" 
d="M203 400h-148v148h148v-148zM203 0h-148v148h148v-148z" />
    <glyph glyph-name="semicolon" unicode=";" 
d="M203 400h-148v148h148v-148zM203 148v-146c0 -40 -3 -114 -114 -114h-27v61c33 0 45 3 45 28v23h-52v148h148z" />
    <glyph glyph-name="less" unicode="&#x3c;" horiz-adv-x="1208" 
d="M435 -66l-350 350l350 349h321l-234 -233h601v-232h-601l234 -234h-321z" />
    <glyph glyph-name="equal" unicode="=" horiz-adv-x="527" 
d="M472 185h-417v116h417v-116zM472 397h-417v116h417v-116z" />
    <glyph glyph-name="greater" unicode="&#x3e;" horiz-adv-x="1208" 
d="M1123 284l-350 -350h-321l234 234h-601v232h601l-234 233h321z" />
    <glyph glyph-name="question" unicode="?" horiz-adv-x="484" 
d="M25 485c0 113 61 222 227 222c60 0 106 -15 140 -40c44 -32 67 -82 67 -144c0 -146 -149 -209 -156 -300h-131c1 96 67 155 113 210c19 22 37 57 37 88c0 44 -27 75 -76 75c-61 0 -88 -41 -88 -111h-133zM312 0h-148v148h148v-148z" />
    <glyph glyph-name="at" unicode="@" horiz-adv-x="1028" 
d="M837 -1l44 -75c-97 -81 -233 -117 -369 -117c-299 0 -457 193 -457 452c0 249 175 476 492 476c223 0 426 -136 426 -399c0 -182 -104 -324 -246 -324c-45 0 -98 19 -116 75c-29 -36 -80 -76 -156 -76c-115 0 -183 90 -183 215c0 128 67 290 235 290
c66 0 109 -33 130 -62c3 17 7 37 9 53h100c-13 -67 -51 -300 -51 -361c0 -31 13 -46 44 -46c71 0 142 100 142 232c0 215 -154 316 -335 316c-257 0 -391 -191 -391 -387c0 -253 174 -367 366 -367c126 0 242 39 316 105zM375 233c0 -86 32 -135 96 -135
c69 0 135 63 135 220c0 75 -41 114 -100 114c-98 0 -131 -129 -131 -199z" />
    <glyph glyph-name="A" unicode="A" horiz-adv-x="646" 
d="M154 0h-144l210 700h200l216 -700h-151l-40 140h-253zM411 259l-94 335l-92 -335h186z" />
    <glyph glyph-name="B" unicode="B" horiz-adv-x="638" 
d="M613 205c0 -98 -72 -205 -232 -205h-321v700h317c101 0 211 -44 211 -179c0 -92 -64 -134 -97 -151c41 -13 122 -50 122 -165zM451 501c0 55 -39 83 -91 83h-162v-169h164c54 0 89 31 89 86zM473 213c0 55 -40 90 -107 90h-168v-187h169c70 0 106 37 106 97z" />
    <glyph glyph-name="C" unicode="C" horiz-adv-x="666" 
d="M350 589c-107 0 -169 -83 -169 -243c0 -152 66 -235 171 -235c112 0 139 84 140 119h144c-9 -113 -93 -241 -287 -241c-264 0 -314 216 -314 359c0 167 81 363 321 363c210 0 276 -147 277 -236h-145c-2 50 -40 114 -138 114z" />
    <glyph glyph-name="D" unicode="D" horiz-adv-x="690" 
d="M655 360c0 -95 -25 -187 -80 -255c-52 -63 -140 -105 -248 -105h-267v700h292c163 0 303 -98 303 -340zM512 355c0 192 -107 227 -193 227h-121v-464h121c86 0 193 45 193 237z" />
    <glyph glyph-name="E" unicode="E" horiz-adv-x="603" 
d="M553 0h-493v700h483v-123h-345v-162h321v-125h-321v-167h355v-123z" />
    <glyph glyph-name="F" unicode="F" horiz-adv-x="586" 
d="M546 577h-348v-185h324v-125h-324v-267h-138v700h486v-123z" />
    <glyph glyph-name="G" unicode="G" horiz-adv-x="705" 
d="M181 344c0 -112 34 -233 174 -233c135 0 166 95 168 148h-167v120h299v-379h-125v66c-45 -50 -108 -77 -185 -77c-234 0 -310 178 -310 359c0 167 82 363 322 363c210 0 275 -147 276 -236h-144c-2 50 -38 114 -136 114c-107 0 -172 -85 -172 -245z" />
    <glyph glyph-name="H" unicode="H" horiz-adv-x="691" 
d="M631 0h-137v290h-296v-290h-138v700h138v-285h296v285h137v-700z" />
    <glyph glyph-name="I" unicode="I" 
d="M198 0h-138v700h138v-700z" />
    <glyph glyph-name="J" unicode="J" horiz-adv-x="358" 
d="M303 700v-529c0 -136 -63 -173 -167 -173c-53 0 -100 4 -111 7v117s40 -5 82 -5c45 0 58 11 58 53v530h138z" />
    <glyph glyph-name="K" unicode="K" horiz-adv-x="658" 
d="M482 0l-197 295l-87 -101v-194h-138v700h138v-321l270 321h165l-258 -299l273 -401h-166z" />
    <glyph glyph-name="L" unicode="L" horiz-adv-x="581" 
d="M541 0h-481v700h138v-577h343v-123z" />
    <glyph glyph-name="M" unicode="M" horiz-adv-x="836" 
d="M418 191l141 509h217v-700h-138v521l-148 -521h-144l-148 521v-521h-138v700h217z" />
    <glyph glyph-name="N" unicode="N" horiz-adv-x="691" 
d="M631 0h-168l-265 492v-492h-138v700h175l259 -488v488h137v-700z" />
    <glyph glyph-name="O" unicode="O" horiz-adv-x="704" 
d="M669 349c0 -228 -139 -360 -317 -360c-179 0 -317 132 -317 360c0 227 138 362 317 362c178 0 317 -135 317 -362zM523 349c0 155 -65 240 -171 240c-107 0 -171 -85 -171 -240c0 -146 64 -238 171 -238c106 0 171 92 171 238z" />
    <glyph glyph-name="P" unicode="P" horiz-adv-x="620" 
d="M595 475c0 -63 -20 -118 -57 -159c-42 -47 -109 -76 -191 -76h-149v-240h-138v700h310c123 0 225 -84 225 -225zM451 471c0 60 -31 110 -121 110h-132v-222h129c94 0 124 55 124 112z" />
    <glyph glyph-name="Q" unicode="Q" horiz-adv-x="704" 
d="M523 348c0 155 -65 241 -172 241c-106 0 -170 -86 -170 -241c0 -146 64 -237 170 -237c107 0 172 91 172 237zM632 -71l-159 82c-38 -14 -81 -21 -125 -21c-178 0 -313 130 -313 358s138 363 316 363c179 0 318 -135 318 -363c0 -105 -31 -192 -81 -253l103 -52z" />
    <glyph glyph-name="R" unicode="R" horiz-adv-x="644" 
d="M585 212c2 -82 4 -125 8 -155c5 -34 11 -49 16 -57h-145c-15 58 -9 126 -15 197c-4 51 -32 78 -89 78h-162v-275h-138v700h316c148 0 222 -88 222 -189c0 -72 -29 -137 -110 -172c57 -12 95 -55 97 -127zM461 491c0 62 -40 90 -110 90h-153v-189h130c45 0 77 8 100 27
c20 17 33 44 33 72z" />
    <glyph glyph-name="S" unicode="S" horiz-adv-x="613" 
d="M588 217c0 -154 -112 -228 -286 -228c-156 0 -268 75 -272 232h143c0 -77 49 -115 135 -115c59 0 141 16 141 95c0 115 -237 61 -348 159c-33 29 -59 76 -59 144c0 138 123 207 258 207c140 0 265 -51 276 -219h-142c-4 38 -15 105 -131 105c-80 0 -120 -33 -120 -83
c0 -105 180 -78 301 -137c57 -27 104 -72 104 -160z" />
    <glyph glyph-name="T" unicode="T" horiz-adv-x="600" 
d="M575 577h-206v-577h-138v577h-206v123h550v-123z" />
    <glyph glyph-name="U" unicode="U" horiz-adv-x="663" 
d="M336 105c89 0 145 52 145 148v447h132v-442c0 -191 -121 -269 -281 -269c-159 0 -282 82 -282 273v438h138v-450c0 -96 60 -145 148 -145z" />
    <glyph glyph-name="V" unicode="V" horiz-adv-x="646" 
d="M161 700l165 -594l166 594h144l-213 -700h-200l-213 700h151z" />
    <glyph glyph-name="W" unicode="W" horiz-adv-x="911" 
d="M901 700l-137 -700h-201l-102 516l-103 -516h-205l-143 700h150l105 -568l113 568h166l116 -568l98 568h143z" />
    <glyph glyph-name="X" unicode="X" horiz-adv-x="616" 
d="M226 354l-212 346h160l141 -243l137 243h152l-212 -348l214 -352h-158l-144 249l-140 -249h-154z" />
    <glyph glyph-name="Y" unicode="Y" horiz-adv-x="621" 
d="M10 700h158l144 -305l146 305h153l-232 -448v-252h-137v252z" />
    <glyph glyph-name="Z" unicode="Z" horiz-adv-x="563" 
d="M543 0h-523v108l355 469h-347v123h510v-112l-349 -465h354v-123z" />
    <glyph glyph-name="bracketleft" unicode="[" horiz-adv-x="353" 
d="M313 -153h-273v893h273v-107h-150v-679h150v-107z" />
    <glyph glyph-name="backslash" unicode="\" horiz-adv-x="357" 
d="M269 -91l-244 791h73l244 -791h-73z" />
    <glyph glyph-name="bracketright" unicode="]" horiz-adv-x="368" 
d="M313 -153h-273v107h150v679h-150v107h273v-893z" />
    <glyph glyph-name="asciicircum" unicode="^" horiz-adv-x="582" 
d="M228 700h124l175 -485h-129l-108 315l-108 -315h-127z" />
    <glyph glyph-name="underscore" unicode="_" horiz-adv-x="510" 
d="M455 -169h-400v116h400v-116z" />
    <glyph glyph-name="grave" unicode="`" horiz-adv-x="380" 
d="M196 598l-141 166h157l113 -166h-129z" />
    <glyph glyph-name="a" unicode="a" horiz-adv-x="576" 
d="M197 326l189 29v19c0 43 -18 71 -99 71c-102 0 -104 -57 -104 -75h-130c0 81 42 185 246 185c194 0 222 -97 222 -176v-302c0 -42 7 -77 7 -77h-138v55c-38 -39 -97 -62 -174 -62c-108 0 -186 62 -186 172c0 125 119 154 167 161zM386 223v29s-95 -14 -138 -22
c-22 -4 -43 -9 -58 -21c-13 -10 -21 -25 -21 -45c0 -15 6 -66 81 -66c44 0 83 16 104 37c26 27 32 62 32 88z" />
    <glyph glyph-name="b" unicode="b" horiz-adv-x="609" 
d="M547 437c22 -43 32 -94 32 -149c0 -158 -72 -295 -254 -295c-66 0 -111 21 -143 55v-48h-127v740h135v-240c32 32 87 55 149 55c109 0 174 -50 208 -118zM441 282c0 69 -17 161 -122 161c-43 0 -76 -14 -97 -40c-23 -28 -32 -71 -32 -127c0 -42 0 -85 18 -117
c17 -31 50 -53 99 -53c100 0 134 78 134 176z" />
    <glyph glyph-name="c" unicode="c" horiz-adv-x="563" 
d="M285 -7c-153 0 -255 92 -255 278c0 191 111 284 261 284c135 0 231 -72 245 -209h-138c-7 60 -45 97 -105 97c-71 0 -124 -49 -124 -169s51 -169 121 -169c58 0 101 33 108 93h138c-10 -119 -99 -205 -251 -205z" />
    <glyph glyph-name="d" unicode="d" horiz-adv-x="609" 
d="M284 555c60 0 103 -18 135 -47v232h135v-740h-133v49c-32 -32 -89 -56 -151 -56c-109 0 -174 50 -208 118c-22 43 -32 96 -32 151c0 158 72 293 254 293zM168 266c0 -69 17 -161 122 -161c43 0 76 14 97 40c23 28 32 71 32 127c0 42 0 85 -18 117c-17 31 -50 53 -99 53
c-100 0 -134 -78 -134 -176z" />
    <glyph glyph-name="e" unicode="e" horiz-adv-x="578" 
d="M175 340h230c-4 75 -55 104 -110 104c-63 0 -113 -39 -120 -104zM291 -7c-153 0 -261 92 -261 278s116 284 266 284c165 0 252 -121 252 -283v-29h-378c0 -62 25 -138 124 -138c54 0 98 27 109 78l137 -3c-17 -109 -104 -187 -249 -187z" />
    <glyph glyph-name="f" unicode="f" horiz-adv-x="364" 
d="M354 435h-114v-435h-135v435h-90v113h90v64c0 88 49 135 148 135c54 0 101 -2 101 -2v-116s-29 1 -64 1c-26 0 -50 -3 -50 -37v-45h114v-113z" />
    <glyph glyph-name="g" unicode="g" horiz-adv-x="597" 
d="M542 548v-539c0 -103 -66 -208 -260 -208c-204 0 -234 107 -236 185h138c0 -19 0 -77 101 -77c81 0 122 29 122 107v70c-26 -32 -80 -63 -156 -63c-73 0 -221 44 -221 261c0 199 126 271 234 271c74 0 125 -29 147 -60v53h131zM407 286c0 60 -12 157 -119 157
c-67 0 -120 -53 -120 -157c0 -121 67 -151 116 -151c92 0 123 61 123 151z" />
    <glyph glyph-name="h" unicode="h" horiz-adv-x="590" 
d="M538 0h-135v340c0 65 -36 100 -95 100c-66 0 -118 -43 -118 -131v-309h-135v740h135v-250c34 37 84 65 154 65c122 0 194 -69 194 -180v-375z" />
    <glyph glyph-name="i" unicode="i" horiz-adv-x="245" 
d="M190 611h-135v129h135v-129zM190 0h-135v548h135v-548z" />
    <glyph glyph-name="j" unicode="j" horiz-adv-x="245" 
d="M-32 -189v115c9 -1 22 -1 39 -1c32 0 48 6 48 38v585h135v-599c0 -101 -38 -141 -164 -141c-25 0 -58 3 -58 3zM190 611h-135v129h135v-129z" />
    <glyph glyph-name="k" unicode="k" horiz-adv-x="588" 
d="M399 548h169l-203 -209l213 -339h-159l-150 246l-79 -85v-161h-135v740h135v-414z" />
    <glyph glyph-name="l" unicode="l" horiz-adv-x="245" 
d="M190 0h-135v740h135v-740z" />
    <glyph glyph-name="m" unicode="m" horiz-adv-x="878" 
d="M508 326v-326h-135v341c0 54 -22 99 -85 99c-52 0 -98 -36 -98 -114v-326h-135v548h132v-55c25 33 69 62 138 62c74 0 120 -30 147 -76c41 53 103 76 168 76c118 0 186 -73 186 -177v-378h-135v341c0 54 -25 99 -88 99c-52 0 -95 -36 -95 -114z" />
    <glyph glyph-name="n" unicode="n" horiz-adv-x="590" 
d="M538 0h-135v340c0 65 -36 100 -95 100c-66 0 -118 -43 -118 -131v-309h-135v548h133v-58c31 37 86 65 156 65c122 0 194 -69 194 -180v-375z" />
    <glyph glyph-name="o" unicode="o" horiz-adv-x="586" 
d="M293 -7c-153 0 -263 95 -263 281s110 281 263 281s263 -95 263 -281s-110 -281 -263 -281zM293 443c-71 0 -125 -49 -125 -169s54 -169 125 -169s125 49 125 169s-54 169 -125 169z" />
    <glyph glyph-name="p" unicode="p" horiz-adv-x="609" 
d="M190 548v-48c32 32 87 55 149 55c109 0 174 -50 208 -118c22 -43 32 -94 32 -149c0 -158 -72 -295 -254 -295c-61 0 -104 17 -135 47v-232h-135v740h135zM441 282c0 69 -17 161 -122 161c-43 0 -76 -14 -97 -40c-23 -28 -32 -71 -32 -127c0 -42 0 -85 18 -117
c17 -31 50 -53 99 -53c100 0 134 78 134 176z" />
    <glyph glyph-name="q" unicode="q" horiz-adv-x="609" 
d="M554 -192h-135v239c-33 -31 -86 -54 -147 -54c-109 0 -176 50 -210 118c-22 43 -32 94 -32 149c0 158 72 295 254 295c60 0 103 -16 135 -45v38h135v-740zM168 266c0 -69 17 -161 122 -161c43 0 76 14 97 40c23 28 32 71 32 127c0 42 0 85 -18 117c-17 31 -50 53 -99 53
c-100 0 -134 -78 -134 -176z" />
    <glyph glyph-name="r" unicode="r" horiz-adv-x="382" 
d="M367 412h-38c-87 0 -139 -33 -139 -120v-292h-135v548h130v-81c25 50 76 81 142 81h40v-136z" />
    <glyph glyph-name="s" unicode="s" horiz-adv-x="539" 
d="M361 387c0 44 -38 67 -96 67c-37 0 -89 -11 -89 -56c0 -21 14 -37 38 -44c54 -16 151 -16 219 -51c43 -22 76 -60 76 -129c0 -83 -54 -181 -247 -181c-223 0 -232 153 -232 181h133c0 -56 50 -77 108 -77c74 0 101 29 101 64c0 42 -53 50 -115 58c-32 4 -65 9 -96 18
c-64 19 -120 58 -120 151c0 111 102 167 228 167c206 0 225 -128 225 -168h-133z" />
    <glyph glyph-name="t" unicode="t" horiz-adv-x="371" 
d="M339 2c0 0 -44 -7 -101 -7c-106 0 -145 38 -145 128v312h-83v113h83v152h135v-152h123v-113h-123v-273c0 -41 11 -48 55 -48c26 0 56 2 56 2v-114z" />
    <glyph glyph-name="u" unicode="u" horiz-adv-x="582" 
d="M527 0h-132v52c-20 -21 -69 -59 -157 -59c-122 0 -186 86 -186 187v368h135v-342c0 -70 36 -103 94 -103c76 0 111 54 111 122v323h135v-548z" />
    <glyph glyph-name="v" unicode="v" horiz-adv-x="555" 
d="M550 548l-182 -548h-183l-180 548h148l126 -419l127 419h144z" />
    <glyph glyph-name="w" unicode="w" horiz-adv-x="840" 
d="M485 548l104 -394l105 394h141l-156 -548h-166l-93 369l-93 -369h-166l-156 548h141l105 -394l104 394h130z" />
    <glyph glyph-name="x" unicode="x" horiz-adv-x="551" 
d="M168 548l113 -171l107 171h152l-183 -273l189 -275h-156l-119 178l-114 -178h-152l192 282l-181 266h152z" />
    <glyph glyph-name="y" unicode="y" horiz-adv-x="528" 
d="M49 -192v118h81c29 0 45 8 53 38l10 36l-188 548h149l114 -381l114 381h141l-206 -611c-28 -84 -62 -129 -155 -129h-113z" />
    <glyph glyph-name="z" unicode="z" horiz-adv-x="515" 
d="M485 0h-455v104l286 331h-279v113h443v-104l-286 -331h291v-113z" />
    <glyph glyph-name="braceleft" unicode="{" horiz-adv-x="388" 
d="M183 291c62 -23 80 -62 80 -149v-133c0 -27 2 -55 36 -55h49v-107h-72c-90 0 -147 43 -147 127v185c0 61 -12 82 -73 82h-16v100h16c61 0 73 21 73 82v190c0 84 57 127 147 127h72v-107h-49c-34 0 -36 -28 -36 -55v-138c0 -87 -18 -126 -80 -149z" />
    <glyph glyph-name="bar" unicode="|" horiz-adv-x="293" 
d="M198 -111h-103v919h103v-919z" />
    <glyph glyph-name="braceright" unicode="}" horiz-adv-x="388" 
d="M205 291c-62 23 -80 62 -80 149v138c0 27 -2 55 -36 55h-49v107h72c90 0 147 -43 147 -127v-190c0 -61 12 -82 73 -82h16v-100h-16c-61 0 -73 -21 -73 -82v-185c0 -84 -57 -127 -147 -127h-72v107h49c34 0 36 28 36 55v133c0 87 18 126 80 149z" />
    <glyph glyph-name="asciitilde" unicode="~" horiz-adv-x="514" 
d="M174 405c53 0 131 -44 155 -44c18 0 25 13 25 42l105 -5c0 -74 -24 -150 -114 -150c-54 0 -135 43 -160 43c-18 0 -26 -18 -26 -47h-104c0 60 12 98 32 122c24 29 55 39 87 39z" />
    <glyph glyph-name="exclamdown" unicode="&#xa1;" 
d="M55 548h148v-148h-148v148zM61 325h136l6 -477h-148z" />
    <glyph glyph-name="cent" unicode="&#xa2;" horiz-adv-x="616" 
d="M282 -145v139c-138 11 -227 102 -227 277c0 169 96 265 227 281v148h59v-146c124 -7 206 -78 220 -208h-138c-6 52 -36 86 -82 95v-334c44 8 76 40 82 91h138c-10 -111 -87 -193 -220 -203v-140h-59zM194 274c0 -101 35 -151 88 -165v329c-52 -15 -88 -66 -88 -164z" />
    <glyph glyph-name="sterling" unicode="&#xa3;" horiz-adv-x="620" 
d="M231 486c0 -43 9 -95 9 -95h145v-109h-131c0 -101 -38 -163 -38 -163h332v-119h-482v105s54 56 54 141c0 7 -2 36 -2 36h-83v109h71s-13 57 -13 100c0 107 73 212 237 212c168 0 235 -104 235 -236h-134c-3 72 -28 120 -103 120c-82 0 -97 -59 -97 -101z" />
    <glyph glyph-name="currency" unicode="&#xa4;" horiz-adv-x="660" 
d="M123 81l-68 68l61 61c-29 41 -46 91 -46 145s17 105 46 146l-61 62l68 68l63 -63c41 27 90 43 144 43c53 0 102 -16 144 -43l63 63l68 -68l-62 -62c30 -41 48 -92 48 -146s-17 -104 -47 -146l61 -60l-68 -68l-62 62c-42 -27 -92 -43 -145 -43c-54 0 -104 16 -145 43z
M190 355c0 -83 64 -146 140 -146c77 0 141 63 141 146c0 84 -64 147 -141 147c-76 0 -140 -63 -140 -147z" />
    <glyph glyph-name="yen" unicode="&#xa5;" horiz-adv-x="722" 
d="M105 290h165l-29 53h-136v75h96l-146 273h155l152 -307l157 307h148l-147 -273h97v-75h-138l-28 -53h166v-75h-188v-215h-137v215h-187v75z" />
    <glyph glyph-name="brokenbar" unicode="&#xa6;" horiz-adv-x="293" 
d="M198 411h-103v397h103v-397zM95 304h103v-415h-103v415z" />
    <glyph glyph-name="section" unicode="&#xa7;" horiz-adv-x="685" 
d="M239 367c-44 -6 -59 -36 -59 -52c0 -31 33 -50 84 -65c49 -14 114 -25 170 -46c44 6 62 36 62 52c0 62 -143 66 -257 111zM150 420c-29 27 -47 65 -47 110c0 84 60 178 251 178c231 0 242 -151 242 -177h-137c0 56 -51 78 -111 78c-85 0 -107 -31 -107 -66
c0 -75 188 -73 303 -133c51 -27 86 -66 86 -129c0 -40 -21 -105 -103 -131c30 -22 49 -55 49 -100c0 -80 -52 -188 -257 -188c-231 0 -242 152 -242 178h137c0 -56 50 -74 111 -74c86 0 109 30 109 65c0 79 -173 68 -285 120c-54 25 -94 66 -94 137c0 45 22 100 95 132z" />
    <glyph glyph-name="dieresis" unicode="&#xa8;" horiz-adv-x="449" 
d="M190 601h-135v129h135v-129zM394 601h-135v129h135v-129z" />
    <glyph glyph-name="copyright" unicode="&#xa9;" horiz-adv-x="831" 
d="M771 354c0 -205 -148 -364 -356 -364c-207 0 -355 159 -355 364c0 204 148 366 355 366c208 0 356 -162 356 -366zM124 354c0 -168 109 -306 291 -306s291 138 291 306s-109 308 -291 308s-291 -140 -291 -308zM592 429h-86c-7 53 -38 75 -85 75
c-56 0 -109 -38 -109 -143c0 -99 44 -146 102 -146c55 0 89 25 96 77h86c-7 -95 -90 -150 -182 -150c-112 0 -190 76 -190 218s90 217 197 217c93 0 166 -53 171 -148z" />
    <glyph glyph-name="ordfeminine" unicode="&#xaa;" horiz-adv-x="409" 
d="M142 558l120 19v9c0 26 -11 43 -62 43c-63 0 -64 -37 -64 -49h-91c0 56 28 127 163 127c129 0 147 -65 147 -118v-196c0 -25 6 -53 6 -53h-97v32c-16 -15 -49 -37 -110 -37c-72 0 -124 42 -124 115c0 83 78 104 112 108zM263 485v20s-59 -10 -87 -15
c-30 -5 -49 -16 -49 -42c0 -14 5 -38 51 -38c28 0 51 10 64 23c16 16 21 34 21 52z" />
    <glyph glyph-name="guillemotleft" unicode="&#xab;" horiz-adv-x="647" 
d="M207 0l-152 273l152 275h145l-150 -273l150 -275h-145zM447 0l-152 273l152 275h145l-150 -273l150 -275h-145z" />
    <glyph glyph-name="logicalnot" unicode="&#xac;" horiz-adv-x="493" 
d="M317 174v117h-262v116h383v-233h-121z" />
    <glyph glyph-name="uni00AD" unicode="&#xad;" horiz-adv-x="220" 
 />
    <glyph glyph-name="registered" unicode="&#xae;" horiz-adv-x="687" 
d="M343 130c-157 0 -288 123 -288 289c0 168 131 291 288 291c158 0 289 -123 289 -291c0 -166 -131 -289 -289 -289zM343 187c130 0 225 96 225 232c0 137 -95 234 -225 234c-129 0 -224 -97 -224 -234c0 -136 95 -232 224 -232zM468 302c0 -23 2 -30 7 -37h-67
s-3 15 -3 54v38c0 19 -9 28 -32 28h-83v-120h-63v317h142c66 0 104 -39 104 -85c0 -32 -12 -61 -46 -77c25 -7 41 -24 41 -62v-56zM410 486c0 29 -18 43 -50 43h-70v-89h70c35 0 50 20 50 46z" />
    <glyph glyph-name="macron" unicode="&#xaf;" horiz-adv-x="441" 
d="M386 600h-331v100h331v-100z" />
    <glyph glyph-name="degree" unicode="&#xb0;" horiz-adv-x="505" 
d="M55 510c0 108 86 190 198 190c111 0 197 -82 197 -190c0 -109 -86 -190 -197 -190c-112 0 -198 81 -198 190zM168 510c0 -55 33 -90 85 -90c50 0 85 35 85 90c0 53 -35 89 -85 89c-52 0 -85 -36 -85 -89z" />
    <glyph glyph-name="plusminus" unicode="&#xb1;" horiz-adv-x="683" 
d="M628 0h-573v116h227v236h-227v116h227v232h118v-232h228v-116h-228v-236h228v-116z" />
    <glyph glyph-name="twosuperior" unicode="&#xb2;" horiz-adv-x="431" 
d="M221 700c114 0 160 -75 160 -135c0 -64 -28 -102 -72 -142l-117 -103h187v-81h-311v79l172 153c31 27 47 51 47 86c0 36 -25 63 -66 63c-39 0 -77 -17 -77 -91h-93c0 95 53 171 170 171z" />
    <glyph glyph-name="threesuperior" unicode="&#xb3;" horiz-adv-x="450" 
d="M224 235c-113 0 -169 67 -169 156h96c0 -53 31 -78 74 -78c54 0 75 30 75 63c0 42 -33 54 -76 54h-37v79h34c55 0 76 25 76 60c0 27 -19 51 -65 51c-50 0 -76 -26 -76 -84h-89c0 102 56 164 169 164c94 0 154 -50 154 -125c0 -46 -22 -90 -73 -102c46 -8 80 -50 80 -95
c0 -95 -71 -143 -173 -143z" />
    <glyph glyph-name="acute" unicode="&#xb4;" horiz-adv-x="380" 
d="M325 764l-141 -166h-129l113 166h157z" />
    <glyph glyph-name="mu" unicode="&#xb5;" horiz-adv-x="585" 
d="M55 -192v740h135v-340c0 -70 36 -105 94 -105c76 0 111 54 111 122v323h135v-548h-132v36c-22 -26 -65 -43 -121 -43c-34 0 -73 6 -94 19v-204h-128z" />
    <glyph glyph-name="paragraph" unicode="&#xb6;" horiz-adv-x="734" 
d="M679 -192h-138v892h138v-892zM435 -192h-138v411h-41c-75 0 -201 66 -201 244c0 110 73 237 234 237h146v-892z" />
    <glyph glyph-name="periodcentered" unicode="&#xb7;" 
d="M203 278h-148v150h148v-150z" />
    <glyph glyph-name="cedilla" unicode="&#xb8;" horiz-adv-x="344" 
d="M287 -89c0 -41 -27 -100 -130 -100c-65 0 -102 17 -102 17l12 63c12 -4 49 -14 77 -14c45 0 65 11 65 36c0 33 -36 36 -111 36l30 93h59l-11 -42c45 0 111 -19 111 -89z" />
    <glyph glyph-name="onesuperior" unicode="&#xb9;" horiz-adv-x="287" 
d="M212 695v-456h-98v326h-79v84h46c26 0 47 9 47 46h84z" />
    <glyph glyph-name="guillemotright" unicode="&#xbb;" horiz-adv-x="647" 
d="M352 273l-152 -273h-145l150 275l-150 273h145zM592 273l-152 -273h-145l150 275l-150 273h145z" />
    <glyph glyph-name="questiondown" unicode="&#xbf;" horiz-adv-x="484" 
d="M459 63c0 -113 -61 -222 -227 -222c-60 0 -106 15 -140 40c-44 32 -67 82 -67 144c0 146 149 209 156 300h131c-1 -96 -67 -155 -113 -210c-19 -22 -37 -57 -37 -88c0 -44 27 -75 76 -75c61 0 88 41 88 111h133zM172 548h148v-148h-148v148z" />
    <glyph glyph-name="AE" unicode="&#xc6;" horiz-adv-x="984" 
d="M461 131h-236l-63 -131h-152l367 700h546v-123h-324v-162h302v-125h-302v-167h335v-123h-473v131zM461 251v346l-178 -346h178z" />
    <glyph glyph-name="multiply" unicode="&#xd7;" horiz-adv-x="660" 
d="M103 620l227 -233l226 233l49 -50l-229 -232l229 -232l-49 -48l-226 231l-227 -231l-48 48l226 232l-226 232z" />
    <glyph glyph-name="Oslash" unicode="&#xd8;" horiz-adv-x="704" 
d="M669 349c0 -228 -139 -360 -317 -360c-52 0 -101 11 -144 32l-56 -96l-68 37l61 103c-68 61 -110 158 -110 284c0 227 138 362 317 362c54 0 104 -13 148 -36l55 94l66 -37l-60 -101c67 -62 108 -159 108 -282zM181 349c0 -65 13 -120 36 -160l219 376
c-24 16 -52 24 -84 24c-107 0 -171 -85 -171 -240zM523 349c0 65 -12 118 -34 158l-217 -375c23 -14 50 -21 80 -21c106 0 171 92 171 238z" />
    <glyph glyph-name="Thorn" unicode="&#xde;" horiz-adv-x="625" 
d="M198 120v-120h-138v700h137v-120h173c123 0 225 -84 225 -225c0 -63 -20 -118 -57 -159c-42 -47 -109 -76 -191 -76h-149zM451 351c0 60 -31 110 -121 110h-132v-222h129c94 0 124 55 124 112z" />
    <glyph glyph-name="germandbls" unicode="&#xdf;" horiz-adv-x="563" 
d="M445 381c0 -62 93 -117 93 -214c0 -80 -46 -169 -196 -169c-41 0 -85 8 -85 8v109c20 -5 54 -9 69 -9c51 0 77 16 77 60c0 50 -94 122 -94 195c0 67 54 155 54 211c0 42 -23 79 -79 79c-50 0 -94 -32 -94 -118v-533h-135v524c0 162 104 241 231 241
c124 0 205 -72 205 -179c0 -85 -46 -175 -46 -205z" />
    <glyph glyph-name="ae" unicode="&#xe6;" horiz-adv-x="931" 
d="M447 81c-31 -38 -88 -88 -222 -88c-108 0 -195 61 -195 171c0 125 109 159 157 165l198 26v19c0 43 -20 71 -101 71c-102 0 -103 -57 -103 -75h-130c0 81 46 185 250 185c93 0 143 -28 175 -62c44 39 103 62 171 62c165 0 249 -121 249 -283v-29h-375
c0 -49 26 -138 126 -138c54 0 96 27 107 78l137 -3c-17 -109 -105 -187 -250 -187c-96 0 -165 41 -194 88zM525 340h230c-4 75 -55 104 -110 104c-63 0 -113 -39 -120 -104zM386 204v50s-108 -14 -151 -22c-40 -8 -66 -23 -66 -67c0 -15 9 -65 84 -65c100 0 133 58 133 104z
" />
    <glyph glyph-name="eth" unicode="&#xf0;" horiz-adv-x="586" 
d="M204 594l-16 46l70 25c-29 32 -61 61 -94 85h179c14 -12 28 -25 41 -39l87 32l16 -46l-68 -25c89 -109 137 -240 137 -389c0 -186 -111 -290 -264 -290c-79 0 -145 22 -192 73c-43 48 -70 118 -70 208c0 205 127 281 241 281c21 0 60 -4 82 -15c-11 23 -33 58 -61 86z
M293 443c-71 0 -125 -49 -125 -169s54 -169 125 -169s125 49 125 169s-54 169 -125 169z" />
    <glyph glyph-name="divide" unicode="&#xf7;" horiz-adv-x="586" 
d="M531 291h-476v116h476v-116zM367 462h-148v148h148v-148zM367 88h-148v148h148v-148z" />
    <glyph glyph-name="oslash" unicode="&#xf8;" horiz-adv-x="586" 
d="M293 -7c-41 0 -79 7 -112 20l-41 -69l-50 29l40 68c-62 46 -100 124 -100 233c0 186 110 281 263 281c46 0 88 -9 125 -26l43 74l50 -29l-45 -76c56 -46 90 -121 90 -224c0 -186 -110 -281 -263 -281zM293 443c-71 0 -125 -49 -125 -169c0 -54 11 -93 29 -120l160 271
c-19 12 -40 18 -64 18zM418 274c0 45 -8 80 -21 106l-156 -265c15 -7 33 -10 52 -10c71 0 125 49 125 169z" />
    <glyph glyph-name="OE" unicode="&#x152;" horiz-adv-x="1053" 
d="M1013 0h-493v65c-43 -46 -104 -72 -186 -72c-90 0 -163 28 -216 89s-83 154 -83 267c0 225 129 358 308 358c72 0 132 -21 177 -67v60h483v-123h-345v-162h316v-125h-316v-167h355v-123zM523 349c0 162 -65 238 -171 238c-107 0 -171 -85 -171 -238s60 -236 167 -236
c106 0 175 82 175 236z" />
    <glyph glyph-name="oe" unicode="&#x153;" horiz-adv-x="967" 
d="M293 443c-71 0 -125 -49 -125 -169s54 -169 125 -169s125 49 125 169s-54 169 -125 169zM561 340h230c-4 75 -55 104 -110 104c-63 0 -113 -39 -120 -104zM679 -7c-92 0 -157 27 -199 80c-44 -47 -98 -80 -190 -80c-153 0 -260 95 -260 281s107 281 260 281
c93 0 157 -33 198 -88c45 53 113 88 195 88c167 0 253 -119 253 -283v-29h-378c0 -62 24 -138 123 -138c54 0 99 27 110 78l137 -3c-17 -109 -104 -187 -249 -187z" />
    <glyph glyph-name="florin" unicode="&#x192;" horiz-adv-x="560" 
d="M399 591l-36 -203h117l-19 -110h-118l-58 -328c-16 -88 -61 -142 -160 -142c-67 0 -115 14 -115 14l20 116s46 -10 79 -10c13 0 37 4 42 31l56 319h-106l19 110h107l38 215c16 88 68 139 168 139c54 0 107 -10 107 -10l-19 -116s-43 9 -80 9c-22 0 -37 -7 -42 -34z" />
    <glyph glyph-name="circumflex" unicode="&#x2c6;" horiz-adv-x="488" 
d="M55 598l129 166h120l129 -166h-132l-57 77l-57 -77h-132z" />
    <glyph glyph-name="caron" unicode="&#x2c7;" horiz-adv-x="488" 
d="M184 598l-129 166h132l57 -77l57 77h132l-129 -166h-120z" />
    <glyph glyph-name="breve" unicode="&#x2d8;" horiz-adv-x="436" 
d="M218 679c42 0 59 29 59 83h104c0 -86 -40 -175 -163 -175s-163 89 -163 175h104c0 -54 17 -83 59 -83z" />
    <glyph glyph-name="dotaccent" unicode="&#x2d9;" horiz-adv-x="261" 
d="M206 598h-151v149h151v-149z" />
    <glyph glyph-name="ring" unicode="&#x2da;" horiz-adv-x="403" 
d="M55 727c0 80 64 141 147 141c82 0 146 -61 146 -141c0 -81 -64 -141 -146 -141c-83 0 -147 60 -147 141zM139 727c0 -41 24 -67 63 -67c37 0 63 26 63 67c0 39 -26 66 -63 66c-39 0 -63 -27 -63 -66z" />
    <glyph glyph-name="ogonek" unicode="&#x2db;" horiz-adv-x="318" 
d="M226 25v-22c-35 -13 -81 -51 -81 -79c0 -33 27 -40 60 -40c18 0 44 2 55 5l-11 -71s-37 -5 -62 -5c-97 0 -131 48 -131 99c0 58 42 94 88 116z" />
    <glyph glyph-name="tilde" unicode="&#x2dc;" horiz-adv-x="496" 
d="M180 745c53 0 109 -38 133 -38c18 0 27 8 27 37h101c0 -74 -24 -143 -114 -143c-51 0 -104 37 -132 37c-18 0 -35 -9 -35 -38h-105c0 75 43 145 125 145z" />
    <glyph glyph-name="hungarumlaut" unicode="&#x2dd;" horiz-adv-x="590" 
d="M325 764l-141 -166h-129l113 166h157zM535 764l-141 -166h-129l113 166h157z" />
    <glyph glyph-name="pi" unicode="&#x3c0;" horiz-adv-x="766" 
d="M284 0h-135v435h-94v113h652v-113h-113v-268c0 -44 20 -52 58 -52h59v-113s-43 -6 -106 -6c-131 0 -146 82 -146 128v311h-175v-435z" />
    <glyph glyph-name="endash" unicode="&#x2013;" horiz-adv-x="560" 
d="M505 240h-450v116h450v-116z" />
    <glyph glyph-name="emdash" unicode="&#x2014;" horiz-adv-x="917" 
d="M862 240h-807v116h807v-116z" />
    <glyph glyph-name="quoteleft" unicode="&#x2018;" 
d="M55 440v146c0 40 3 114 114 114h27v-61c-33 0 -45 -3 -45 -28v-23h52v-148h-148z" />
    <glyph glyph-name="quoteright" unicode="&#x2019;" 
d="M203 700v-146c0 -40 -3 -114 -114 -114h-27v61c33 0 45 3 45 28v23h-52v148h148z" />
    <glyph glyph-name="quotesinglbase" unicode="&#x201a;" 
d="M203 148v-146c0 -40 -3 -114 -114 -114h-27v61c33 0 45 3 45 28v23h-52v148h148z" />
    <glyph glyph-name="quotedblleft" unicode="&#x201c;" horiz-adv-x="467" 
d="M55 440v146c0 40 3 114 114 114h27v-61c-33 0 -45 -3 -45 -28v-23h52v-148h-148zM264 440v146c0 40 3 114 114 114h27v-61c-33 0 -45 -3 -45 -28v-23h52v-148h-148z" />
    <glyph glyph-name="quotedblright" unicode="&#x201d;" horiz-adv-x="467" 
d="M412 700v-146c0 -40 -3 -114 -114 -114h-27v61c33 0 45 3 45 28v23h-52v148h148zM203 700v-146c0 -40 -3 -114 -114 -114h-27v61c33 0 45 3 45 28v23h-52v148h148z" />
    <glyph glyph-name="quotedblbase" unicode="&#x201e;" horiz-adv-x="467" 
d="M412 148v-146c0 -40 -3 -114 -114 -114h-27v61c33 0 45 3 45 28v23h-52v148h148zM203 148v-146c0 -40 -3 -114 -114 -114h-27v61c33 0 45 3 45 28v23h-52v148h148z" />
    <glyph glyph-name="dagger" unicode="&#x2020;" horiz-adv-x="559" 
d="M208 371h-153v126h153v203h143v-203h153v-126h-153v-371h-143v371z" />
    <glyph glyph-name="daggerdbl" unicode="&#x2021;" horiz-adv-x="559" 
d="M55 150h153v221h-153v126h153v203h143v-203h153v-126h-153v-221h153v-126h-153v-206h-143v206h-153v126z" />
    <glyph glyph-name="bullet" unicode="&#x2022;" horiz-adv-x="424" 
d="M55 358c0 86 71 157 157 157c87 0 157 -71 157 -157c0 -87 -70 -157 -157 -157c-86 0 -157 70 -157 157z" />
    <glyph glyph-name="ellipsis" unicode="&#x2026;" horiz-adv-x="834" 
d="M203 0h-148v148h148v-148zM491 0h-148v148h148v-148zM779 0h-148v148h148v-148z" />
    <glyph glyph-name="perthousand" unicode="&#x2030;" horiz-adv-x="1276" 
d="M663 -7c-57 0 -171 24 -171 191c0 166 114 190 171 190c58 0 172 -24 172 -190c0 -167 -114 -191 -172 -191zM663 292c-41 0 -69 -33 -69 -108c0 -81 28 -109 69 -109c42 0 70 28 70 109c0 75 -28 108 -70 108zM1049 -7c-57 0 -171 24 -171 191c0 166 114 190 171 190
c58 0 172 -24 172 -190c0 -167 -114 -191 -172 -191zM1049 292c-41 0 -69 -33 -69 -108c0 -81 28 -109 69 -109c42 0 70 28 70 109c0 75 -28 108 -70 108zM736 697l-471 -697h-107l470 697h108zM226 319c-57 0 -171 23 -171 191c0 165 114 190 171 190
c58 0 172 -25 172 -190c0 -168 -114 -191 -172 -191zM226 618c-41 0 -70 -35 -70 -108c0 -82 29 -109 70 -109c42 0 70 27 70 109c0 73 -28 108 -70 108z" />
    <glyph glyph-name="guilsinglleft" unicode="&#x2039;" horiz-adv-x="407" 
d="M207 0l-152 273l152 275h145l-150 -273l150 -275h-145z" />
    <glyph glyph-name="guilsinglright" unicode="&#x203a;" horiz-adv-x="407" 
d="M352 273l-152 -273h-145l150 275l-150 273h145z" />
    <glyph glyph-name="fraction" unicode="&#x2044;" horiz-adv-x="0" 
 />
    <glyph glyph-name="zerosuperior" unicode="&#x2070;" horiz-adv-x="452" 
d="M226 235c-74 0 -171 40 -171 232c0 193 97 233 171 233s171 -40 171 -233c0 -192 -97 -232 -171 -232zM226 621c-37 0 -74 -25 -74 -154s37 -153 74 -153s74 24 74 153s-37 154 -74 154z" />
    <glyph glyph-name="foursuperior" unicode="&#x2074;" horiz-adv-x="461" 
d="M406 333h-52v-94h-93v94h-216v79l189 283h120v-287h52v-75zM261 408v193l-126 -193h126z" />
    <glyph glyph-name="fivesuperior" unicode="&#x2075;" horiz-adv-x="451" 
d="M66 430l14 263h294v-83h-215l-5 -91c10 12 44 32 91 32c97 0 154 -62 154 -148c0 -93 -56 -170 -177 -170c-136 0 -166 92 -167 140h97c2 -30 25 -62 72 -62c51 0 79 35 79 84c0 48 -28 79 -77 79c-35 0 -62 -21 -71 -46z" />
    <glyph glyph-name="sixsuperior" unicode="&#x2076;" horiz-adv-x="455" 
d="M240 700c127 0 151 -94 153 -127h-93c-2 21 -18 50 -64 50c-60 0 -85 -57 -88 -118c19 23 59 41 101 41c72 0 151 -46 151 -152c0 -95 -67 -159 -168 -159c-100 0 -177 64 -177 220c0 115 39 245 185 245zM309 389c0 46 -29 79 -74 79c-44 0 -76 -32 -76 -79
c0 -46 31 -77 75 -77s75 31 75 77z" />
    <glyph glyph-name="sevensuperior" unicode="&#x2077;" horiz-adv-x="362" 
d="M239 611h-219v83h322v-75l-175 -380h-105z" />
    <glyph glyph-name="eightsuperior" unicode="&#x2078;" horiz-adv-x="464" 
d="M232 700c90 0 166 -41 166 -128c0 -45 -26 -81 -68 -95c45 -11 79 -48 79 -104c0 -89 -74 -138 -177 -138s-177 49 -177 138c0 56 34 93 79 104c-42 14 -68 50 -68 95c0 87 76 128 166 128zM232 313c50 0 80 28 80 64c0 38 -29 62 -80 62s-80 -24 -80 -62
c0 -36 30 -64 80 -64zM232 513c53 0 76 27 76 59c0 37 -32 56 -76 56s-76 -19 -76 -56c0 -32 23 -59 76 -59z" />
    <glyph glyph-name="ninesuperior" unicode="&#x2079;" horiz-adv-x="455" 
d="M215 235c-127 0 -151 94 -153 127h93c2 -21 18 -50 64 -50c60 0 87 58 88 119c-20 -23 -57 -42 -102 -42c-72 0 -150 44 -150 150c0 95 70 161 168 161c100 0 177 -64 177 -220c0 -115 -39 -245 -185 -245zM146 546c0 -46 29 -79 74 -79c44 0 76 32 76 79
c0 46 -31 77 -75 77s-75 -31 -75 -77z" />
    <glyph glyph-name="Euro" unicode="&#x20ac;" horiz-adv-x="638" 
d="M96 246h-61v76h55c0 31 1 53 1 53h-56v76h63c20 180 130 253 256 253c90 0 209 -46 218 -198h-129c-5 59 -44 81 -94 81c-43 0 -102 -25 -114 -136h245v-76h-252v-53h252v-76h-246c5 -99 58 -138 113 -138c68 0 94 36 101 79h135c-17 -149 -130 -198 -239 -198
c-116 0 -238 63 -248 257z" />
    <glyph glyph-name="trademark" unicode="&#x2122;" horiz-adv-x="763" 
d="M708 385h-73v236l-74 -236h-54l-73 231v-231h-74v315h110l65 -212l67 212h106v-315zM325 634h-98v-249h-74v249h-98v66h270v-66z" />
    <glyph glyph-name="Omega" unicode="&#x2126;" horiz-adv-x="776" 
d="M388 590c-123 0 -190 -49 -190 -160c0 -107 71 -151 148 -155v-275h-267v123h129v75c-101 30 -153 122 -153 227c0 214 174 282 333 282s333 -68 333 -282c0 -105 -52 -197 -153 -227v-75h129v-123h-267v275c77 4 148 48 148 155c0 111 -67 160 -190 160z" />
    <glyph glyph-name="partialdiff" unicode="&#x2202;" horiz-adv-x="586" 
d="M353 540c-39 66 -112 155 -189 210h177c132 -115 215 -279 215 -467c0 -186 -111 -290 -264 -290c-79 0 -145 22 -192 73c-43 48 -70 118 -70 208c0 205 128 281 242 281c21 0 59 -4 81 -15zM293 443c-71 0 -125 -49 -125 -169s54 -169 125 -169s125 49 125 169
s-54 169 -125 169z" />
    <glyph glyph-name="Delta" unicode="&#x2206;" horiz-adv-x="774" 
d="M567 123l-180 464l-181 -464h361zM470 700l249 -606v-94h-664v94l247 606h168z" />
    <glyph glyph-name="product" unicode="&#x220f;" horiz-adv-x="786" 
d="M55 700h676v-123h-90v-769h-138v769h-220v-769h-138v769h-90v123z" />
    <glyph glyph-name="summation" unicode="&#x2211;" horiz-adv-x="678" 
d="M623 -192h-568v109l254 345l-254 327v111h564v-123h-381l220 -286v-52l-225 -308h390v-123z" />
    <glyph glyph-name="minus" unicode="&#x2212;" horiz-adv-x="527" 
d="M472 291h-417v116h417v-116z" />
    <glyph glyph-name="radical" unicode="&#x221a;" horiz-adv-x="757" 
d="M702 700l-278 -892h-190l-179 571h150l127 -439l225 760h145z" />
    <glyph glyph-name="infinity" unicode="&#x221e;" horiz-adv-x="959" 
d="M673 102c-98 0 -158 51 -197 114c-40 -63 -100 -114 -190 -114c-157 0 -231 113 -231 249s73 248 231 248c96 0 156 -46 195 -106c38 60 97 106 192 106c158 0 231 -112 231 -248s-73 -249 -231 -249zM289 226c64 0 104 57 134 125c-28 64 -73 125 -131 125
c-64 0 -104 -50 -104 -125c0 -74 37 -125 101 -125zM667 476c-58 0 -108 -53 -129 -122c26 -71 65 -128 129 -128s104 51 104 125c0 75 -32 125 -104 125z" />
    <glyph glyph-name="integral" unicode="&#x222b;" horiz-adv-x="550" 
d="M399 591l-114 -641c-16 -88 -61 -142 -160 -142c-67 0 -115 14 -115 14l20 116s46 -10 79 -10c13 0 37 4 42 31l114 644c16 88 68 139 168 139c54 0 107 -10 107 -10l-19 -116s-43 9 -80 9c-22 0 -37 -7 -42 -34z" />
    <glyph glyph-name="approxequal" unicode="&#x2248;" horiz-adv-x="514" 
d="M174 345c53 0 131 -44 155 -44c18 0 25 13 25 42l105 -5c0 -74 -24 -150 -114 -150c-54 0 -134 42 -159 42c-18 0 -27 -17 -27 -46h-104c0 60 12 98 32 122c24 29 55 39 87 39zM174 535c53 0 131 -44 155 -44c18 0 25 13 25 42l105 -5c0 -74 -24 -150 -114 -150
c-54 0 -134 42 -159 42c-18 0 -27 -17 -27 -46h-104c0 60 12 98 32 122c24 29 55 39 87 39z" />
    <glyph glyph-name="notequal" unicode="&#x2260;" horiz-adv-x="654" 
d="M599 194h-329l-69 -119l-57 34l49 85h-138v110h202l52 91h-254v111h319l69 119l57 -34l-49 -85h148v-111h-213l-53 -91h266v-110z" />
    <glyph glyph-name="lessequal" unicode="&#x2264;" horiz-adv-x="485" 
d="M430 0h-375v105h375v-105zM55 378v62l375 230v-136l-207 -125l207 -125v-136z" />
    <glyph glyph-name="greaterequal" unicode="&#x2265;" horiz-adv-x="485" 
d="M430 440v-62l-375 -230v136l207 125l-207 125v136zM430 0h-375v105h375v-105z" />
    <glyph glyph-name="lozenge" unicode="&#x25ca;" horiz-adv-x="629" 
d="M574 345l-173 -434h-166l-180 434l180 435h166zM433 345l-114 299l-118 -299l118 -298z" />
    <glyph glyph-name="zero.alt" horiz-adv-x="598" 
d="M299 -11c-112 0 -259 61 -259 357s147 358 259 358s259 -62 259 -358s-147 -357 -259 -357zM299 589c-58 0 -119 -38 -119 -243c0 -206 61 -242 119 -242s119 36 119 242c0 205 -61 243 -119 243z" />
    <glyph glyph-name="one.alt" horiz-adv-x="598" 
d="M372 115h150v-115h-446v115h155v387h-136v119h84c44 0 71 10 74 71h119v-577z" />
    <glyph glyph-name="two.alt" horiz-adv-x="598" 
d="M307 704c144 0 237 -88 237 -213c0 -99 -44 -161 -119 -222l-186 -152h305v-117h-477v127l265 220c70 58 78 99 78 143c0 58 -44 97 -106 97c-59 0 -120 -28 -120 -139h-134c0 146 81 256 257 256z" />
    <glyph glyph-name="three.alt" horiz-adv-x="598" 
d="M298 -11c-177 0 -257 99 -257 234h135c1 -90 56 -121 125 -121c81 0 118 46 118 100c0 68 -54 91 -122 91h-53v114h44c87 0 121 36 121 93c0 46 -31 91 -105 91s-120 -39 -120 -129h-131c0 150 97 242 252 242c148 0 234 -80 234 -193c0 -73 -35 -132 -107 -154
c75 -12 123 -77 123 -150c0 -120 -79 -218 -257 -218z" />
    <glyph glyph-name="four.alt" horiz-adv-x="598" 
d="M575 144h-81v-144h-133v144h-333v116l283 432h183v-438h81v-110zM361 254v321l-212 -321h212z" />
    <glyph glyph-name="five.alt" horiz-adv-x="598" 
d="M58 294l22 400h442v-119h-331l-9 -151c19 21 69 50 141 50c146 0 232 -97 232 -228c0 -149 -87 -256 -266 -256c-196 0 -247 139 -249 208h139c5 -44 39 -96 114 -96c82 0 127 54 127 134c0 75 -42 127 -120 127c-76 0 -106 -48 -116 -73z" />
    <glyph glyph-name="six.alt" horiz-adv-x="598" 
d="M322 704c191 0 226 -141 228 -189h-133c-4 32 -29 77 -103 77c-101 0 -138 -96 -143 -200c26 33 82 71 167 71c109 0 219 -71 219 -228c0 -145 -100 -246 -252 -246c-151 0 -265 97 -265 329c0 176 49 386 282 386zM192 228c0 -74 44 -124 115 -124c72 0 115 51 115 124
s-42 124 -114 124c-71 0 -116 -50 -116 -124z" />
    <glyph glyph-name="seven.alt" horiz-adv-x="598" 
d="M396 573h-340v118h486v-110l-268 -581h-151z" />
    <glyph glyph-name="eight.alt" horiz-adv-x="598" 
d="M299 -11c-152 0 -262 75 -262 211c0 90 57 145 112 164c-51 20 -96 73 -96 145c0 132 112 195 246 195s245 -63 245 -195c0 -72 -44 -125 -95 -145c55 -19 112 -74 112 -164c0 -136 -110 -211 -262 -211zM299 307c-78 0 -124 -40 -124 -100c0 -59 47 -104 124 -104
s124 45 124 104c0 60 -46 100 -124 100zM299 597c-68 0 -118 -31 -118 -90c0 -52 37 -94 118 -94s118 42 118 94c0 59 -50 90 -118 90z" />
    <glyph glyph-name="nine.alt" horiz-adv-x="598" 
d="M275 -11c-191 0 -226 141 -228 189h133c4 -32 29 -77 103 -77c101 0 139 93 140 197c-27 -33 -85 -68 -164 -68c-109 0 -219 71 -219 228c0 145 100 246 252 246c151 0 265 -104 265 -328c0 -176 -49 -387 -282 -387zM405 465c0 74 -44 124 -115 124
c-72 0 -115 -51 -115 -124s42 -124 114 -124c71 0 116 50 116 124z" />
    <glyph glyph-name="zero.posf" horiz-adv-x="599" 
d="M299 -7c-111 0 -259 52 -259 306c0 255 148 306 259 306c112 0 260 -51 260 -306c0 -254 -148 -306 -260 -306zM417 299c0 146 -47 193 -118 193s-118 -47 -118 -193s47 -193 118 -193s118 47 118 193z" />
    <glyph glyph-name="one.posf" horiz-adv-x="372" 
d="M287 598v-598h-141v408h-106v119h56c43 0 69 10 72 71h119z" />
    <glyph glyph-name="two.posf" horiz-adv-x="548" 
d="M278 610c144 0 228 -95 228 -197c0 -86 -41 -143 -130 -203l-138 -95h270v-115h-461v123l234 161c82 57 89 86 89 126c0 39 -26 85 -97 85c-78 0 -114 -49 -114 -134h-132c0 153 91 249 251 249z" />
    <glyph glyph-name="three.posf" horiz-adv-x="594" 
d="M297 -105c-177 0 -257 99 -257 234h135c1 -90 56 -121 125 -121c81 0 118 46 118 100c0 68 -54 91 -122 91h-53v114h44c87 0 121 36 121 93c0 46 -31 91 -105 91s-120 -39 -120 -129h-131c0 150 97 242 252 242c148 0 234 -80 234 -193c0 -73 -35 -132 -107 -154
c75 -12 123 -77 123 -150c0 -120 -79 -218 -257 -218z" />
    <glyph glyph-name="four.posf" horiz-adv-x="602" 
d="M577 50h-81v-144h-133v144h-333v116l283 432h183v-438h81v-110zM363 160v326l-212 -326h212z" />
    <glyph glyph-name="five.posf" horiz-adv-x="585" 
d="M53 200l21 394h443v-118h-331l-9 -139c31 28 88 48 141 48c146 0 232 -98 232 -228c0 -148 -95 -258 -269 -258c-196 0 -244 138 -246 206h139c5 -43 35 -95 112 -95c82 0 129 54 129 133c0 77 -43 127 -121 127c-48 0 -97 -28 -116 -71z" />
    <glyph glyph-name="six.posf" horiz-adv-x="587" 
d="M317 704c191 0 226 -141 228 -189h-133c-4 32 -29 77 -103 77c-101 0 -138 -96 -143 -200c26 33 82 71 167 71c109 0 219 -71 219 -228c0 -145 -100 -246 -252 -246c-151 0 -265 97 -265 329c0 176 49 386 282 386zM187 228c0 -74 44 -124 115 -124c72 0 115 51 115 124
s-42 124 -114 124c-71 0 -116 -50 -116 -124z" />
    <glyph glyph-name="seven.posf" horiz-adv-x="521" 
d="M355 476h-340v118h486v-110l-268 -578h-151z" />
    <glyph glyph-name="eight.posf" horiz-adv-x="606" 
d="M303 -11c-152 0 -262 75 -262 211c0 90 57 145 112 164c-51 20 -96 73 -96 145c0 132 112 195 246 195s245 -63 245 -195c0 -72 -44 -125 -95 -145c55 -19 112 -74 112 -164c0 -136 -110 -211 -262 -211zM303 307c-78 0 -124 -40 -124 -100c0 -59 47 -104 124 -104
s124 45 124 104c0 60 -46 100 -124 100zM303 597c-68 0 -118 -31 -118 -90c0 -52 37 -94 118 -94s118 42 118 94c0 59 -50 90 -118 90z" />
    <glyph glyph-name="nine.posf" horiz-adv-x="587" 
d="M270 -106c-191 0 -226 141 -228 189h133c4 -32 29 -77 103 -77c101 0 139 93 140 197c-27 -33 -85 -68 -164 -68c-109 0 -219 71 -219 228c0 145 100 246 252 246c151 0 265 -116 265 -328c0 -176 -49 -387 -282 -387zM400 370c0 74 -44 124 -115 124
c-72 0 -115 -51 -115 -124s42 -124 114 -124c71 0 116 50 116 124z" />
    <glyph glyph-name="uni02C9" unicode="&#x2c9;" horiz-adv-x="421" 
d="M366 600h-311v100h311v-100z" />
    <glyph glyph-name="apostrophe" unicode="&#x2bc;" 
d="M203 700v-146c0 -40 -3 -114 -114 -114h-27v61c33 0 45 3 45 28v23h-52v148h148z" />
    <glyph glyph-name="caron.alt" 
d="M203 700v-146c0 -40 -3 -114 -114 -114h-27v61c33 0 45 3 45 28v23h-52v148h148z" />
    <glyph glyph-name="commaaccent" unicode="&#xf6c3;" 
d="M203 -59v-146c0 -40 -3 -114 -114 -114h-27v61c33 0 45 3 45 28v23h-52v148h148z" />
    <glyph glyph-name="revcommaaccent" 
d="M55 440v146c0 40 3 114 114 114h27v-61c-33 0 -45 -3 -45 -28v-23h52v-148h-148z" />
    <glyph glyph-name="uni00A0" unicode="&#xa0;" horiz-adv-x="0" 
 />
    <glyph glyph-name="afii61289" unicode="&#x2113;" horiz-adv-x="556" 
d="M417 184l84 -49c-39 -101 -102 -142 -204 -142c-109 0 -164 75 -166 174c-19 -16 -49 -45 -49 -45l-27 85s55 46 71 61v263c0 188 83 234 165 234c92 0 144 -67 144 -163c0 -120 -94 -255 -203 -365v-43c0 -89 39 -107 82 -107c54 0 83 33 103 97zM232 544v-179
c63 75 107 157 107 233c0 48 -15 76 -49 76c-26 0 -58 -16 -58 -130z" />
    <glyph glyph-name="estimated" unicode="&#x212e;" horiz-adv-x="884" 
d="M707 138h47c-54 -87 -159 -145 -294 -145c-221 0 -355 149 -355 359c0 199 132 355 348 355c177 0 309 -111 326 -299h-519v-318c56 -49 132 -68 204 -68c102 0 201 46 243 116zM451 679c-60 0 -141 -19 -189 -61v-178h361v190c-57 38 -115 49 -172 49z" />
    <glyph glyph-name="thorn" unicode="&#xfe;" horiz-adv-x="609" 
d="M55 740h135v-240c32 32 87 55 149 55c109 0 174 -50 208 -118c22 -43 32 -94 32 -149c0 -158 -72 -295 -254 -295c-61 0 -104 17 -135 47v-232h-135v932zM441 282c0 69 -17 161 -122 161c-43 0 -76 -14 -97 -40c-23 -28 -32 -71 -32 -127c0 -42 0 -85 18 -117
c17 -31 50 -53 99 -53c100 0 134 78 134 176z" />
    <glyph glyph-name="lslash" unicode="&#x142;" horiz-adv-x="375" 
d="M255 0h-135v285l-65 -18v106l65 18v349h135v-310l65 19v-106l-65 -19v-324z" />
    <glyph glyph-name="Eth" unicode="&#xd0;" horiz-adv-x="722" 
d="M687 360c0 -95 -25 -187 -80 -255c-52 -63 -140 -105 -248 -105h-267v290h-67v125h67v285h292c163 0 303 -98 303 -340zM544 355c0 192 -107 227 -193 227h-121v-167h173v-125h-173v-172h121c86 0 193 45 193 237z" />
    <glyph glyph-name="zeroinferior" unicode="&#x2080;" horiz-adv-x="452" 
d="M226 -7c-74 0 -171 40 -171 232c0 193 97 233 171 233s171 -40 171 -233c0 -192 -97 -232 -171 -232zM226 379c-37 0 -74 -25 -74 -154s37 -153 74 -153s74 24 74 153s-37 154 -74 154z" />
    <glyph glyph-name="oneinferior" unicode="&#x2081;" horiz-adv-x="287" 
d="M212 456v-456h-98v326h-79v84h46c26 0 47 9 47 46h84z" />
    <glyph glyph-name="twoinferior" unicode="&#x2082;" horiz-adv-x="431" 
d="M221 461c114 0 160 -75 160 -135c0 -64 -28 -102 -72 -142l-117 -103h187v-81h-311v79l172 153c31 27 47 51 47 86c0 36 -25 63 -66 63c-39 0 -77 -17 -77 -91h-93c0 95 53 171 170 171z" />
    <glyph glyph-name="threeinferior" unicode="&#x2083;" horiz-adv-x="450" 
d="M224 -7c-113 0 -169 67 -169 156h96c0 -53 31 -78 74 -78c54 0 75 30 75 63c0 42 -33 54 -76 54h-37v79h34c55 0 76 25 76 60c0 27 -19 51 -65 51c-50 0 -76 -26 -76 -84h-89c0 102 56 164 169 164c94 0 154 -50 154 -125c0 -46 -22 -90 -73 -102c46 -8 80 -50 80 -95
c0 -95 -71 -143 -173 -143z" />
    <glyph glyph-name="fourinferior" unicode="&#x2084;" horiz-adv-x="461" 
d="M406 94h-52v-94h-93v94h-216v79l189 283h120v-287h52v-75zM261 169v193l-126 -193h126z" />
    <glyph glyph-name="fiveinferior" unicode="&#x2085;" horiz-adv-x="451" 
d="M66 190l14 263h294v-83h-215l-5 -91c10 12 44 32 91 32c97 0 154 -62 154 -148c0 -93 -56 -170 -177 -170c-136 0 -166 92 -167 140h97c2 -30 25 -62 72 -62c51 0 79 35 79 84c0 48 -28 79 -77 79c-35 0 -62 -21 -71 -46z" />
    <glyph glyph-name="sixinferior" unicode="&#x2086;" horiz-adv-x="455" 
d="M240 458c127 0 151 -94 153 -127h-93c-2 21 -18 50 -64 50c-60 0 -85 -57 -88 -118c19 23 59 41 101 41c72 0 151 -46 151 -152c0 -95 -67 -159 -168 -159c-100 0 -177 64 -177 220c0 115 39 245 185 245zM309 147c0 46 -29 79 -74 79c-44 0 -76 -32 -76 -79
c0 -46 31 -77 75 -77s75 31 75 77z" />
    <glyph glyph-name="seveninferior" unicode="&#x2087;" horiz-adv-x="362" 
d="M239 372h-219v83h322v-75l-175 -380h-105z" />
    <glyph glyph-name="eightinferior" unicode="&#x2088;" horiz-adv-x="464" 
d="M232 458c90 0 166 -41 166 -128c0 -45 -26 -81 -68 -95c45 -11 79 -48 79 -104c0 -89 -74 -138 -177 -138s-177 49 -177 138c0 56 34 93 79 104c-42 14 -68 50 -68 95c0 87 76 128 166 128zM232 71c50 0 80 28 80 64c0 38 -29 62 -80 62s-80 -24 -80 -62
c0 -36 30 -64 80 -64zM232 271c53 0 76 27 76 59c0 37 -32 56 -76 56s-76 -19 -76 -56c0 -32 23 -59 76 -59z" />
    <glyph glyph-name="nineinferior" unicode="&#x2089;" horiz-adv-x="455" 
d="M215 -7c-127 0 -151 94 -153 127h93c2 -21 18 -50 64 -50c60 0 87 58 88 119c-20 -23 -57 -42 -102 -42c-72 0 -150 44 -150 150c0 95 70 161 168 161c100 0 177 -64 177 -220c0 -115 -39 -245 -185 -245zM146 304c0 -46 29 -79 74 -79c44 0 76 32 76 79
c0 46 -31 77 -75 77s-75 -31 -75 -77z" />
    <glyph glyph-name="sixsevenths" horiz-adv-x="819" 
d="M240 700c127 0 151 -94 153 -127h-93c-2 21 -18 50 -64 50c-60 0 -85 -57 -88 -118c19 23 59 41 101 41c72 0 151 -46 151 -152c0 -95 -67 -159 -168 -159c-100 0 -177 64 -177 220c0 115 39 245 185 245zM309 389c0 46 -29 79 -74 79c-44 0 -76 -32 -76 -79
c0 -46 31 -77 75 -77s75 31 75 77zM661 372h-219v83h322v-75l-175 -380h-105z" />
    <glyph glyph-name="fourfifths" horiz-adv-x="864" 
d="M479 190l14 263h294v-83h-215l-5 -91c10 12 44 32 91 32c97 0 154 -62 154 -148c0 -93 -56 -170 -177 -170c-136 0 -166 92 -167 140h97c2 -30 25 -62 72 -62c51 0 79 35 79 84c0 48 -28 79 -77 79c-35 0 -62 -21 -71 -46zM416 333h-52v-94h-93v94h-216v79l189 283h120
v-287h52v-75zM271 408v193l-126 -193h126z" />
    <glyph glyph-name="sevenninths" horiz-adv-x="714" 
d="M274 611h-219v83h322v-75l-175 -380h-105zM474 -7c-127 0 -151 94 -153 127h93c2 -21 18 -50 64 -50c60 0 87 58 88 119c-20 -23 -57 -42 -102 -42c-72 0 -150 44 -150 150c0 95 70 161 168 161c100 0 177 -64 177 -220c0 -115 -39 -245 -185 -245zM405 304
c0 -46 29 -79 74 -79c44 0 76 32 76 79c0 46 -31 77 -75 77s-75 -31 -75 -77z" />
    <glyph glyph-name="threesevenths" horiz-adv-x="815" 
d="M224 235c-113 0 -169 67 -169 156h96c0 -53 31 -78 74 -78c54 0 75 30 75 63c0 42 -33 54 -76 54h-37v79h34c55 0 76 25 76 60c0 27 -19 51 -65 51c-50 0 -76 -26 -76 -84h-89c0 102 56 164 169 164c94 0 154 -50 154 -125c0 -46 -22 -90 -73 -102c46 -8 80 -50 80 -95
c0 -95 -71 -143 -173 -143zM657 372h-219v83h322v-75l-175 -380h-105z" />
    <glyph glyph-name="fiveeighths" unicode="&#x215d;" horiz-adv-x="836" 
d="M66 430l14 263h294v-83h-215l-5 -91c10 12 44 32 91 32c97 0 154 -62 154 -148c0 -93 -56 -170 -177 -170c-136 0 -166 92 -167 140h97c2 -30 25 -62 72 -62c51 0 79 35 79 84c0 48 -28 79 -77 79c-35 0 -62 -21 -71 -46zM604 458c90 0 166 -41 166 -128
c0 -45 -26 -81 -68 -95c45 -11 79 -48 79 -104c0 -89 -74 -138 -177 -138s-177 49 -177 138c0 56 34 93 79 104c-42 14 -68 50 -68 95c0 87 76 128 166 128zM604 71c50 0 80 28 80 64c0 38 -29 62 -80 62s-80 -24 -80 -62c0 -36 30 -64 80 -64zM604 271c53 0 76 27 76 59
c0 37 -32 56 -76 56s-76 -19 -76 -56c0 -32 23 -59 76 -59z" />
    <glyph glyph-name="oneninth" horiz-adv-x="691" 
d="M451 -7c-127 0 -151 94 -153 127h93c2 -21 18 -50 64 -50c60 0 87 58 88 119c-20 -23 -57 -42 -102 -42c-72 0 -150 44 -150 150c0 95 70 161 168 161c100 0 177 -64 177 -220c0 -115 -39 -245 -185 -245zM382 304c0 -46 29 -79 74 -79c44 0 76 32 76 79
c0 46 -31 77 -75 77s-75 -31 -75 -77zM232 695v-456h-98v326h-79v84h46c26 0 47 9 47 46h84z" />
    <glyph glyph-name="threefifths" horiz-adv-x="822" 
d="M224 235c-113 0 -169 67 -169 156h96c0 -53 31 -78 74 -78c54 0 75 30 75 63c0 42 -33 54 -76 54h-37v79h34c55 0 76 25 76 60c0 27 -19 51 -65 51c-50 0 -76 -26 -76 -84h-89c0 102 56 164 169 164c94 0 154 -50 154 -125c0 -46 -22 -90 -73 -102c46 -8 80 -50 80 -95
c0 -95 -71 -143 -173 -143zM437 190l14 263h294v-83h-215l-5 -91c10 12 44 32 91 32c97 0 154 -62 154 -148c0 -93 -56 -170 -177 -170c-136 0 -166 92 -167 140h97c2 -30 25 -62 72 -62c51 0 79 35 79 84c0 48 -28 79 -77 79c-35 0 -62 -21 -71 -46z" />
    <glyph glyph-name="eightninths" horiz-adv-x="848" 
d="M232 700c90 0 166 -41 166 -128c0 -45 -26 -81 -68 -95c45 -11 79 -48 79 -104c0 -89 -74 -138 -177 -138s-177 49 -177 138c0 56 34 93 79 104c-42 14 -68 50 -68 95c0 87 76 128 166 128zM232 313c50 0 80 28 80 64c0 38 -29 62 -80 62s-80 -24 -80 -62
c0 -36 30 -64 80 -64zM232 513c53 0 76 27 76 59c0 37 -32 56 -76 56s-76 -19 -76 -56c0 -32 23 -59 76 -59zM608 -7c-127 0 -151 94 -153 127h93c2 -21 18 -50 64 -50c60 0 87 58 88 119c-20 -23 -57 -42 -102 -42c-72 0 -150 44 -150 150c0 95 70 161 168 161
c100 0 177 -64 177 -220c0 -115 -39 -245 -185 -245zM539 304c0 -46 29 -79 74 -79c44 0 76 32 76 79c0 46 -31 77 -75 77s-75 -31 -75 -77z" />
    <glyph glyph-name="oneeighth" unicode="&#x215b;" horiz-adv-x="697" 
d="M465 458c90 0 166 -41 166 -128c0 -45 -26 -81 -68 -95c45 -11 79 -48 79 -104c0 -89 -74 -138 -177 -138s-177 49 -177 138c0 56 34 93 79 104c-42 14 -68 50 -68 95c0 87 76 128 166 128zM465 71c50 0 80 28 80 64c0 38 -29 62 -80 62s-80 -24 -80 -62
c0 -36 30 -64 80 -64zM465 271c53 0 76 27 76 59c0 37 -32 56 -76 56s-76 -19 -76 -56c0 -32 23 -59 76 -59zM232 695v-456h-98v326h-79v84h46c26 0 47 9 47 46h84z" />
    <glyph glyph-name="seveneighths" unicode="&#x215e;" horiz-adv-x="727" 
d="M274 611h-219v83h322v-75l-175 -380h-105zM495 458c90 0 166 -41 166 -128c0 -45 -26 -81 -68 -95c45 -11 79 -48 79 -104c0 -89 -74 -138 -177 -138s-177 49 -177 138c0 56 34 93 79 104c-42 14 -68 50 -68 95c0 87 76 128 166 128zM495 71c50 0 80 28 80 64
c0 38 -29 62 -80 62s-80 -24 -80 -62c0 -36 30 -64 80 -64zM495 271c53 0 76 27 76 59c0 37 -32 56 -76 56s-76 -19 -76 -56c0 -32 23 -59 76 -59z" />
    <glyph glyph-name="twofifths" horiz-adv-x="815" 
d="M221 700c114 0 160 -75 160 -135c0 -64 -28 -102 -72 -142l-117 -103h187v-81h-311v79l172 153c31 27 47 51 47 86c0 36 -25 63 -66 63c-39 0 -77 -17 -77 -91h-93c0 95 53 171 170 171zM430 190l14 263h294v-83h-215l-5 -91c10 12 44 32 91 32c97 0 154 -62 154 -148
c0 -93 -56 -170 -177 -170c-136 0 -166 92 -167 140h97c2 -30 25 -62 72 -62c51 0 79 35 79 84c0 48 -28 79 -77 79c-35 0 -62 -21 -71 -46z" />
    <glyph glyph-name="onefifth" horiz-adv-x="686" 
d="M301 190l14 263h294v-83h-215l-5 -91c10 12 44 32 91 32c97 0 154 -62 154 -148c0 -93 -56 -170 -177 -170c-136 0 -166 92 -167 140h97c2 -30 25 -62 72 -62c51 0 79 35 79 84c0 48 -28 79 -77 79c-35 0 -62 -21 -71 -46zM232 695v-456h-98v326h-79v84h46
c26 0 47 9 47 46h84z" />
    <glyph glyph-name="twothirds" unicode="&#x2154;" horiz-adv-x="833" 
d="M221 700c114 0 160 -75 160 -135c0 -64 -28 -102 -72 -142l-117 -103h187v-81h-311v79l172 153c31 27 47 51 47 86c0 36 -25 63 -66 63c-39 0 -77 -17 -77 -91h-93c0 95 53 171 170 171zM607 -7c-113 0 -169 67 -169 156h96c0 -53 31 -78 74 -78c54 0 75 30 75 63
c0 42 -33 54 -76 54h-37v79h34c55 0 76 25 76 60c0 27 -19 51 -65 51c-50 0 -76 -26 -76 -84h-89c0 102 56 164 169 164c94 0 154 -50 154 -125c0 -46 -22 -90 -73 -102c46 -8 80 -50 80 -95c0 -95 -71 -143 -173 -143z" />
    <glyph glyph-name="foursevenths" horiz-adv-x="838" 
d="M416 333h-52v-94h-93v94h-216v79l189 283h120v-287h52v-75zM271 408v193l-126 -193h126zM680 372h-219v83h322v-75l-175 -380h-105z" />
    <glyph glyph-name="oneseventh" horiz-adv-x="675" 
d="M517 372h-219v83h322v-75l-175 -380h-105zM232 695v-456h-98v326h-79v84h46c26 0 47 9 47 46h84z" />
    <glyph glyph-name="twosevenths" horiz-adv-x="787" 
d="M221 700c114 0 160 -75 160 -135c0 -64 -28 -102 -72 -142l-117 -103h187v-81h-311v79l172 153c31 27 47 51 47 86c0 36 -25 63 -66 63c-39 0 -77 -17 -77 -91h-93c0 95 53 171 170 171zM629 372h-219v83h322v-75l-175 -380h-105z" />
    <glyph glyph-name="onethird" unicode="&#x2153;" horiz-adv-x="681" 
d="M455 -7c-113 0 -169 67 -169 156h96c0 -53 31 -78 74 -78c54 0 75 30 75 63c0 42 -33 54 -76 54h-37v79h34c55 0 76 25 76 60c0 27 -19 51 -65 51c-50 0 -76 -26 -76 -84h-89c0 102 56 164 169 164c94 0 154 -50 154 -125c0 -46 -22 -90 -73 -102c46 -8 80 -50 80 -95
c0 -95 -71 -143 -173 -143zM232 695v-456h-98v326h-79v84h46c26 0 47 9 47 46h84z" />
    <glyph glyph-name="onesixth" horiz-adv-x="686" 
d="M471 458c127 0 151 -94 153 -127h-93c-2 21 -18 50 -64 50c-60 0 -85 -57 -88 -118c19 23 59 41 101 41c72 0 151 -46 151 -152c0 -95 -67 -159 -168 -159c-100 0 -177 64 -177 220c0 115 39 245 185 245zM540 147c0 46 -29 79 -74 79c-44 0 -76 -32 -76 -79
c0 -46 31 -77 75 -77s75 31 75 77zM232 695v-456h-98v326h-79v84h46c26 0 47 9 47 46h84z" />
    <glyph glyph-name="threeeighths" unicode="&#x215c;" horiz-adv-x="832" 
d="M224 235c-113 0 -169 67 -169 156h96c0 -53 31 -78 74 -78c54 0 75 30 75 63c0 42 -33 54 -76 54h-37v79h34c55 0 76 25 76 60c0 27 -19 51 -65 51c-50 0 -76 -26 -76 -84h-89c0 102 56 164 169 164c94 0 154 -50 154 -125c0 -46 -22 -90 -73 -102c46 -8 80 -50 80 -95
c0 -95 -71 -143 -173 -143zM600 458c90 0 166 -41 166 -128c0 -45 -26 -81 -68 -95c45 -11 79 -48 79 -104c0 -89 -74 -138 -177 -138s-177 49 -177 138c0 56 34 93 79 104c-42 14 -68 50 -68 95c0 87 76 128 166 128zM600 71c50 0 80 28 80 64c0 38 -29 62 -80 62
s-80 -24 -80 -62c0 -36 30 -64 80 -64zM600 271c53 0 76 27 76 59c0 37 -32 56 -76 56s-76 -19 -76 -56c0 -32 23 -59 76 -59z" />
    <glyph glyph-name="fiveninths" horiz-adv-x="830" 
d="M66 430l14 263h294v-83h-215l-5 -91c10 12 44 32 91 32c97 0 154 -62 154 -148c0 -93 -56 -170 -177 -170c-136 0 -166 92 -167 140h97c2 -30 25 -62 72 -62c51 0 79 35 79 84c0 48 -28 79 -77 79c-35 0 -62 -21 -71 -46zM590 -7c-127 0 -151 94 -153 127h93
c2 -21 18 -50 64 -50c60 0 87 58 88 119c-20 -23 -57 -42 -102 -42c-72 0 -150 44 -150 150c0 95 70 161 168 161c100 0 177 -64 177 -220c0 -115 -39 -245 -185 -245zM521 304c0 -46 29 -79 74 -79c44 0 76 32 76 79c0 46 -31 77 -75 77s-75 -31 -75 -77z" />
    <glyph glyph-name="fivesixths" horiz-adv-x="827" 
d="M66 430l14 263h294v-83h-215l-5 -91c10 12 44 32 91 32c97 0 154 -62 154 -148c0 -93 -56 -170 -177 -170c-136 0 -166 92 -167 140h97c2 -30 25 -62 72 -62c51 0 79 35 79 84c0 48 -28 79 -77 79c-35 0 -62 -21 -71 -46zM612 458c127 0 151 -94 153 -127h-93
c-2 21 -18 50 -64 50c-60 0 -85 -57 -88 -118c19 23 59 41 101 41c72 0 151 -46 151 -152c0 -95 -67 -159 -168 -159c-100 0 -177 64 -177 220c0 115 39 245 185 245zM681 147c0 46 -29 79 -74 79c-44 0 -76 -32 -76 -79c0 -46 31 -77 75 -77s75 31 75 77z" />
    <glyph glyph-name="fivesevenths" horiz-adv-x="826" 
d="M66 430l14 263h294v-83h-215l-5 -91c10 12 44 32 91 32c97 0 154 -62 154 -148c0 -93 -56 -170 -177 -170c-136 0 -166 92 -167 140h97c2 -30 25 -62 72 -62c51 0 79 35 79 84c0 48 -28 79 -77 79c-35 0 -62 -21 -71 -46zM668 372h-219v83h322v-75l-175 -380h-105z" />
    <glyph glyph-name="fourninths" horiz-adv-x="865" 
d="M625 -7c-127 0 -151 94 -153 127h93c2 -21 18 -50 64 -50c60 0 87 58 88 119c-20 -23 -57 -42 -102 -42c-72 0 -150 44 -150 150c0 95 70 161 168 161c100 0 177 -64 177 -220c0 -115 -39 -245 -185 -245zM556 304c0 -46 29 -79 74 -79c44 0 76 32 76 79
c0 46 -31 77 -75 77s-75 -31 -75 -77zM416 333h-52v-94h-93v94h-216v79l189 283h120v-287h52v-75zM271 408v193l-126 -193h126z" />
    <glyph glyph-name="twoninths" horiz-adv-x="832" 
d="M221 700c114 0 160 -75 160 -135c0 -64 -28 -102 -72 -142l-117 -103h187v-81h-311v79l172 153c31 27 47 51 47 86c0 36 -25 63 -66 63c-39 0 -77 -17 -77 -91h-93c0 95 53 171 170 171zM592 -7c-127 0 -151 94 -153 127h93c2 -21 18 -50 64 -50c60 0 87 58 88 119
c-20 -23 -57 -42 -102 -42c-72 0 -150 44 -150 150c0 95 70 161 168 161c100 0 177 -64 177 -220c0 -115 -39 -245 -185 -245zM523 304c0 -46 29 -79 74 -79c44 0 76 32 76 79c0 46 -31 77 -75 77s-75 -31 -75 -77z" />
    <glyph glyph-name="zero.sinf" horiz-adv-x="452" 
d="M226 -117c-74 0 -171 40 -171 232c0 193 97 233 171 233s171 -40 171 -233c0 -192 -97 -232 -171 -232zM226 269c-37 0 -74 -25 -74 -154s37 -153 74 -153s74 24 74 153s-37 154 -74 154z" />
    <glyph glyph-name="one.sinf" horiz-adv-x="287" 
d="M212 346v-456h-98v326h-79v84h46c26 0 47 9 47 46h84z" />
    <glyph glyph-name="two.sinf" horiz-adv-x="431" 
d="M223 351c114 0 160 -75 160 -135c0 -64 -28 -102 -73 -141l-118 -104h187v-81h-311v79l175 154c31 27 46 50 46 85c0 36 -25 63 -66 63c-39 0 -77 -17 -77 -91h-93c0 95 53 171 170 171z" />
    <glyph glyph-name="three.sinf" horiz-adv-x="450" 
d="M224 -117c-113 0 -169 67 -169 156h96c0 -53 31 -78 74 -78c54 0 75 30 75 63c0 42 -33 54 -76 54h-37v79h34c55 0 76 25 76 60c0 27 -19 51 -65 51c-50 0 -76 -26 -76 -84h-89c0 102 56 164 169 164c94 0 154 -50 154 -125c0 -46 -22 -90 -73 -102c46 -8 80 -50 80 -95
c0 -95 -71 -143 -173 -143z" />
    <glyph glyph-name="four.sinf" horiz-adv-x="461" 
d="M406 -16h-52v-94h-93v94h-216v79l189 283h120v-287h52v-75zM261 59v193l-126 -193h126z" />
    <glyph glyph-name="five.sinf" horiz-adv-x="451" 
d="M66 80l14 263h294v-83h-215l-5 -91c10 12 44 32 91 32c97 0 154 -62 154 -148c0 -93 -56 -170 -177 -170c-136 0 -166 92 -167 140h97c2 -30 25 -62 72 -62c51 0 79 35 79 84c0 48 -28 79 -77 79c-35 0 -62 -21 -71 -46z" />
    <glyph glyph-name="six.sinf" horiz-adv-x="455" 
d="M240 348c127 0 151 -94 153 -127h-93c-2 21 -18 50 -64 50c-60 0 -85 -53 -88 -114c20 18 59 37 101 37c72 0 151 -46 151 -152c0 -95 -67 -159 -168 -159c-100 0 -177 64 -177 220c0 115 39 245 185 245zM309 37c0 46 -29 79 -74 79c-44 0 -76 -32 -76 -79
c0 -46 31 -77 75 -77s75 31 75 77z" />
    <glyph glyph-name="seven.sinf" horiz-adv-x="362" 
d="M239 262h-219v83h322v-75l-175 -380h-105z" />
    <glyph glyph-name="eight.sinf" horiz-adv-x="464" 
d="M232 348c90 0 166 -41 166 -128c0 -45 -26 -81 -68 -95c45 -11 79 -48 79 -104c0 -89 -74 -138 -177 -138s-177 49 -177 138c0 56 34 93 79 104c-42 14 -68 50 -68 95c0 87 76 128 166 128zM232 -39c50 0 80 28 80 64c0 38 -29 62 -80 62s-80 -24 -80 -62
c0 -36 30 -64 80 -64zM232 161c53 0 76 27 76 59c0 37 -32 56 -76 56s-76 -19 -76 -56c0 -32 23 -59 76 -59z" />
    <glyph glyph-name="nine.sinf" horiz-adv-x="455" 
d="M215 -117c-127 0 -151 94 -153 127h93c2 -21 18 -50 64 -50c60 0 85 53 88 114c-20 -20 -56 -37 -101 -37c-72 0 -151 46 -151 152c0 95 67 159 168 159c100 0 177 -64 177 -220c0 -115 -39 -245 -185 -245zM146 194c0 -46 29 -79 74 -79c44 0 76 32 76 79
c0 46 -31 77 -75 77s-75 -31 -75 -77z" />
    <glyph glyph-name="zero.sups" horiz-adv-x="452" 
d="M226 352c-74 0 -171 40 -171 232c0 193 97 233 171 233s171 -40 171 -233c0 -192 -97 -232 -171 -232zM226 738c-37 0 -74 -25 -74 -154s37 -153 74 -153s74 24 74 153s-37 154 -74 154z" />
    <glyph glyph-name="one.sups" horiz-adv-x="287" 
d="M212 815v-456h-98v326h-79v84h46c26 0 47 9 47 46h84z" />
    <glyph glyph-name="two.sups" horiz-adv-x="431" 
d="M223 820c114 0 160 -75 160 -135c0 -64 -28 -102 -73 -141l-118 -104h187v-81h-311v79l175 154c31 27 46 50 46 85c0 36 -25 63 -66 63c-39 0 -77 -17 -77 -91h-93c0 95 53 171 170 171z" />
    <glyph glyph-name="three.sups" horiz-adv-x="450" 
d="M224 352c-113 0 -169 67 -169 156h96c0 -53 31 -78 74 -78c54 0 75 30 75 63c0 42 -33 54 -76 54h-37v79h34c55 0 76 25 76 60c0 27 -19 51 -65 51c-50 0 -76 -26 -76 -84h-89c0 102 56 164 169 164c94 0 154 -50 154 -125c0 -46 -22 -90 -73 -102c46 -8 80 -50 80 -95
c0 -95 -71 -143 -173 -143z" />
    <glyph glyph-name="four.sups" horiz-adv-x="461" 
d="M406 453h-52v-94h-93v94h-216v79l189 283h120v-287h52v-75zM261 528v193l-126 -193h126z" />
    <glyph glyph-name="five.sups" horiz-adv-x="451" 
d="M66 549l14 263h294v-83h-215l-5 -91c10 12 44 32 91 32c97 0 154 -62 154 -148c0 -93 -56 -170 -177 -170c-136 0 -166 92 -167 140h97c2 -30 25 -62 72 -62c51 0 79 35 79 84c0 48 -28 79 -77 79c-35 0 -62 -21 -71 -46z" />
    <glyph glyph-name="six.sups" horiz-adv-x="455" 
d="M240 817c127 0 151 -94 153 -127h-93c-2 21 -18 50 -64 50c-60 0 -85 -57 -88 -118c19 23 59 41 101 41c72 0 151 -46 151 -152c0 -95 -67 -159 -168 -159c-100 0 -177 64 -177 220c0 115 39 245 185 245zM309 506c0 46 -29 79 -74 79c-44 0 -76 -32 -76 -79
c0 -46 31 -77 75 -77s75 31 75 77z" />
    <glyph glyph-name="seven.sups" horiz-adv-x="362" 
d="M239 731h-219v83h322v-75l-175 -380h-105z" />
    <glyph glyph-name="eight.sups" horiz-adv-x="464" 
d="M232 817c90 0 166 -41 166 -128c0 -45 -26 -81 -68 -95c45 -11 79 -48 79 -104c0 -89 -74 -138 -177 -138s-177 49 -177 138c0 56 34 93 79 104c-42 14 -68 50 -68 95c0 87 76 128 166 128zM232 430c50 0 80 28 80 64c0 38 -29 62 -80 62s-80 -24 -80 -62
c0 -36 30 -64 80 -64zM232 630c53 0 76 27 76 59c0 37 -32 56 -76 56s-76 -19 -76 -56c0 -32 23 -59 76 -59z" />
    <glyph glyph-name="nine.sups" horiz-adv-x="455" 
d="M215 352c-127 0 -151 94 -153 127h93c2 -21 18 -50 64 -50c60 0 85 53 88 114c-20 -20 -56 -37 -101 -37c-72 0 -151 46 -151 152c0 95 67 159 168 159c100 0 177 -64 177 -220c0 -115 -39 -245 -185 -245zM146 663c0 -46 29 -79 74 -79c44 0 76 32 76 79
c0 46 -31 77 -75 77s-75 -31 -75 -77z" />
    <glyph glyph-name="threequarters" unicode="&#xbe;" horiz-adv-x="767" 
d="M224 235c-113 0 -169 67 -169 156h96c0 -53 31 -78 74 -78c54 0 75 30 75 63c0 42 -33 54 -76 54h-37v79h34c55 0 76 25 76 60c0 27 -19 51 -65 51c-50 0 -76 -26 -76 -84h-89c0 102 56 164 169 164c94 0 154 -50 154 -125c0 -46 -22 -90 -73 -102c46 -8 80 -50 80 -95
c0 -95 -71 -143 -173 -143zM712 94h-52v-94h-93v94h-216v79l189 283h120v-287h52v-75zM567 169v193l-126 -193h126z" />
    <glyph glyph-name="onequarter" unicode="&#xbc;" horiz-adv-x="676" 
d="M621 94h-52v-94h-93v94h-216v79l189 283h120v-287h52v-75zM476 169v193l-126 -193h126zM232 695v-456h-98v326h-79v84h46c26 0 47 9 47 46h84z" />
    <glyph glyph-name="onehalf" unicode="&#xbd;" horiz-adv-x="677" 
d="M468 461c114 0 160 -75 160 -135c0 -64 -28 -102 -72 -142l-117 -103h187v-81h-311v79l172 153c31 27 47 51 47 86c0 36 -25 63 -66 63c-39 0 -77 -17 -77 -91h-93c0 95 53 171 170 171zM232 695v-456h-98v326h-79v84h46c26 0 47 9 47 46h84z" />
    <glyph glyph-name="ordmasculine" unicode="&#xba;" horiz-adv-x="408" 
d="M204 335c-101 0 -174 63 -174 186s73 186 174 186s174 -63 174 -186s-73 -186 -174 -186zM204 628c-44 0 -78 -31 -78 -107s34 -107 78 -107s78 31 78 107s-34 107 -78 107z" />
    <glyph glyph-name="dotlessi" unicode="&#x131;" horiz-adv-x="245" 
d="M190 0h-135v548h135v-548z" />
    <glyph glyph-name="Agrave" unicode="&#xc0;" horiz-adv-x="646" 
d="M154 0h-144l210 700h200l216 -700h-151l-40 140h-253zM411 259l-94 335l-92 -335h186zM330 750l-141 166h157l113 -166h-129z" />
    <glyph glyph-name="Aacute" unicode="&#xc1;" horiz-adv-x="646" 
d="M10 0h144l38 140h253l40 -140h151l-216 700h-200zM317 594l94 -335h-186zM471 916l-141 -166h-129l113 166h157z" />
    <glyph glyph-name="Acircumflex" unicode="&#xc2;" horiz-adv-x="646" 
d="M154 0h-144l210 700h200l216 -700h-151l-40 140h-253zM411 259l-94 335l-92 -335h186zM128 750l129 166h120l129 -166h-132l-57 77l-57 -77h-132z" />
    <glyph glyph-name="Atilde" unicode="&#xc3;" horiz-adv-x="646" 
d="M10 0h144l38 140h253l40 -140h151l-216 700h-200zM317 594l94 -335h-186zM249 897c53 0 109 -38 133 -38c18 0 27 8 27 37h101c0 -74 -24 -143 -114 -143c-51 0 -104 37 -132 37c-18 0 -35 -9 -35 -38h-105c0 75 43 145 125 145z" />
    <glyph glyph-name="Adieresis" unicode="&#xc4;" horiz-adv-x="646" 
d="M10 0h144l38 140h253l40 -140h151l-216 700h-200zM317 594l94 -335h-186zM283 753h-135v129h135v-129zM487 753h-135v129h135v-129z" />
    <glyph glyph-name="Amacron" unicode="&#x100;" horiz-adv-x="646" 
d="M10 0h144l38 140h253l40 -140h151l-216 700h-200zM317 594l94 -335h-186zM483 752h-331v100h331v-100z" />
    <glyph glyph-name="Abreve" unicode="&#x102;" horiz-adv-x="646" 
d="M154 0h-144l210 700h200l216 -700h-151l-40 140h-253zM411 259l-94 335l-92 -335h186zM319 831c42 0 59 29 59 83h104c0 -86 -40 -175 -163 -175s-163 89 -163 175h104c0 -54 17 -83 59 -83z" />
    <glyph glyph-name="Cacute" unicode="&#x106;" horiz-adv-x="666" 
d="M350 589c-107 0 -169 -83 -169 -243c0 -152 66 -235 171 -235c112 0 139 84 140 119h144c-9 -113 -93 -241 -287 -241c-264 0 -314 216 -314 359c0 167 81 363 321 363c210 0 276 -147 277 -236h-145c-2 50 -40 114 -138 114zM544 916l-141 -166h-129l113 166h157z" />
    <glyph glyph-name="Ccircumflex" unicode="&#x108;" horiz-adv-x="666" 
d="M350 589c-107 0 -169 -83 -169 -243c0 -152 66 -235 171 -235c112 0 139 84 140 119h144c-9 -113 -93 -241 -287 -241c-264 0 -314 216 -314 359c0 167 81 363 321 363c210 0 276 -147 277 -236h-145c-2 50 -40 114 -138 114zM156 750l129 166h120l129 -166h-132l-57 77
l-57 -77h-132z" />
    <glyph glyph-name="Cdotaccent" unicode="&#x10a;" horiz-adv-x="666" 
d="M350 589c-107 0 -169 -83 -169 -243c0 -152 66 -235 171 -235c112 0 139 84 140 119h144c-9 -113 -93 -241 -287 -241c-264 0 -314 216 -314 359c0 167 81 363 321 363c210 0 276 -147 277 -236h-145c-2 50 -40 114 -138 114zM426 750h-151v149h151v-149z" />
    <glyph glyph-name="Ccaron" unicode="&#x10c;" horiz-adv-x="666" 
d="M350 589c-107 0 -169 -83 -169 -243c0 -152 66 -235 171 -235c112 0 139 84 140 119h144c-9 -113 -93 -241 -287 -241c-264 0 -314 216 -314 359c0 167 81 363 321 363c210 0 276 -147 277 -236h-145c-2 50 -40 114 -138 114zM285 750l-129 166h132l57 -77l57 77h132
l-129 -166h-120z" />
    <glyph glyph-name="Dcroat" unicode="&#x110;" horiz-adv-x="722" 
d="M687 360c0 -95 -25 -187 -80 -255c-52 -63 -140 -105 -248 -105h-267v290h-67v125h67v285h292c163 0 303 -98 303 -340zM544 355c0 192 -107 227 -193 227h-121v-167h173v-125h-173v-172h121c86 0 193 45 193 237z" />
    <glyph glyph-name="Egrave" unicode="&#xc8;" horiz-adv-x="603" 
d="M553 0h-493v700h483v-123h-345v-162h321v-125h-321v-167h355v-123zM282 750l-141 166h157l113 -166h-129z" />
    <glyph glyph-name="Eacute" unicode="&#xc9;" horiz-adv-x="603" 
d="M553 0h-493v700h483v-123h-345v-162h321v-125h-321v-167h355v-123zM478 916l-141 -166h-129l113 166h157z" />
    <glyph glyph-name="Ecircumflex" unicode="&#xca;" horiz-adv-x="603" 
d="M553 0h-493v700h483v-123h-345v-162h321v-125h-321v-167h355v-123zM113 750l129 166h120l129 -166h-132l-57 77l-57 -77h-132z" />
    <glyph glyph-name="Edieresis" unicode="&#xcb;" horiz-adv-x="603" 
d="M553 0h-493v700h483v-123h-345v-162h321v-125h-321v-167h355v-123zM267 753h-135v129h135v-129zM471 753h-135v129h135v-129z" />
    <glyph glyph-name="Emacron" unicode="&#x112;" horiz-adv-x="603" 
d="M553 0h-493v700h483v-123h-345v-162h321v-125h-321v-167h355v-123zM467 752h-331v100h331v-100z" />
    <glyph glyph-name="Ebreve" unicode="&#x114;" horiz-adv-x="603" 
d="M553 0h-493v700h483v-123h-345v-162h321v-125h-321v-167h355v-123zM306 831c42 0 59 29 59 83h104c0 -86 -40 -175 -163 -175s-163 89 -163 175h104c0 -54 17 -83 59 -83z" />
    <glyph glyph-name="Edotaccent" unicode="&#x116;" horiz-adv-x="603" 
d="M553 0h-493v700h483v-123h-345v-162h321v-125h-321v-167h355v-123zM383 750h-151v149h151v-149z" />
    <glyph glyph-name="Eogonek" unicode="&#x118;" horiz-adv-x="593" 
d="M553 123v-123c-74 -14 -102 -50 -102 -76c0 -33 27 -40 60 -40c18 0 44 2 55 5l-11 -71s-37 -5 -62 -5c-97 0 -131 48 -131 99c0 38 22 69 53 88h-355v700h483v-123h-345v-162h321v-125h-321v-167h355z" />
    <glyph glyph-name="Ecaron" unicode="&#x11a;" horiz-adv-x="603" 
d="M553 0h-493v700h483v-123h-345v-162h321v-125h-321v-167h355v-123zM240 750l-129 166h132l57 -77l57 77h132l-129 -166h-120z" />
    <glyph glyph-name="Gcircumflex" unicode="&#x11c;" horiz-adv-x="705" 
d="M181 344c0 -112 34 -233 174 -233c135 0 166 95 168 148h-167v120h299v-379h-125v66c-45 -50 -108 -77 -185 -77c-234 0 -310 178 -310 359c0 167 82 363 322 363c210 0 275 -147 276 -236h-144c-2 50 -38 114 -136 114c-107 0 -172 -85 -172 -245zM166 750l129 166h120
l129 -166h-132l-57 77l-57 -77h-132z" />
    <glyph glyph-name="Gbreve" unicode="&#x11e;" horiz-adv-x="705" 
d="M181 344c0 -112 34 -233 174 -233c135 0 166 95 168 148h-167v120h299v-379h-125v66c-45 -50 -108 -77 -185 -77c-234 0 -310 178 -310 359c0 167 82 363 322 363c210 0 275 -147 276 -236h-144c-2 50 -38 114 -136 114c-107 0 -172 -85 -172 -245zM354 831
c42 0 59 29 59 83h104c0 -86 -40 -175 -163 -175s-163 89 -163 175h104c0 -54 17 -83 59 -83z" />
    <glyph glyph-name="Gdotaccent" unicode="&#x120;" horiz-adv-x="705" 
d="M181 344c0 -112 34 -233 174 -233c135 0 166 95 168 148h-167v120h299v-379h-125v66c-45 -50 -108 -77 -185 -77c-234 0 -310 178 -310 359c0 167 82 363 322 363c210 0 275 -147 276 -236h-144c-2 50 -38 114 -136 114c-107 0 -172 -85 -172 -245zM435 750h-151v149h151
v-149z" />
    <glyph glyph-name="Gcommaaccent" unicode="&#x122;" horiz-adv-x="705" 
d="M181 344c0 -112 34 -233 174 -233c135 0 166 95 168 148h-167v120h299v-379h-125v66c-45 -50 -108 -77 -185 -77c-234 0 -310 178 -310 359c0 167 82 363 322 363c210 0 275 -147 276 -236h-144c-2 50 -38 114 -136 114c-107 0 -172 -85 -172 -245zM430 -59v-146
c0 -40 -3 -114 -114 -114h-27v61c33 0 45 3 45 28v23h-52v148h148z" />
    <glyph glyph-name="Kcommaaccent" unicode="&#x136;" horiz-adv-x="658" 
d="M482 0l-197 295l-87 -101v-194h-138v700h138v-321l270 321h165l-258 -299l273 -401h-166zM398 -59v-146c0 -40 -3 -114 -114 -114h-27v61c33 0 45 3 45 28v23h-52v148h148z" />
    <glyph glyph-name="Lacute" unicode="&#x139;" horiz-adv-x="581" 
d="M541 0h-481v700h138v-577h343v-123zM411 916l-141 -166h-129l113 166h157z" />
    <glyph glyph-name="Lcommaaccent" unicode="&#x13b;" horiz-adv-x="581" 
d="M541 0h-481v700h138v-577h343v-123zM370 -59v-146c0 -40 -3 -114 -114 -114h-27v61c33 0 45 3 45 28v23h-52v148h148z" />
    <glyph glyph-name="Lcaron" unicode="&#x13d;" horiz-adv-x="581" 
d="M541 0h-481v700h138v-577h343v-123zM436 700v-146c0 -40 -3 -114 -114 -114h-27v61c33 0 45 3 45 28v23h-52v148h148z" />
    <glyph glyph-name="Ldot" unicode="&#x13f;" horiz-adv-x="581" 
d="M541 0h-481v700h138v-577h343v-123zM419 308h-148v150h148v-150z" />
    <glyph glyph-name="Lslash" unicode="&#x141;" horiz-adv-x="641" 
d="M258 431l162 48v-106l-162 -48v-202h343v-123h-481v285l-65 -18v106l65 18v309h138v-269z" />
    <glyph glyph-name="Ograve" unicode="&#xd2;" horiz-adv-x="704" 
d="M669 349c0 -228 -139 -360 -317 -360c-179 0 -317 132 -317 360c0 227 138 362 317 362c178 0 317 -135 317 -362zM523 349c0 155 -65 240 -171 240c-107 0 -171 -85 -171 -240c0 -146 64 -238 171 -238c106 0 171 92 171 238zM324 750l-141 166h157l113 -166h-129z" />
    <glyph glyph-name="Oacute" unicode="&#xd3;" horiz-adv-x="704" 
d="M669 349c0 -228 -139 -360 -317 -360c-179 0 -317 132 -317 360c0 227 138 362 317 362c178 0 317 -135 317 -362zM523 349c0 155 -65 240 -171 240c-107 0 -171 -85 -171 -240c0 -146 64 -238 171 -238c106 0 171 92 171 238zM555 916l-141 -166h-129l113 166h157z" />
    <glyph glyph-name="Ocircumflex" unicode="&#xd4;" horiz-adv-x="704" 
d="M669 349c0 -228 -139 -360 -317 -360c-179 0 -317 132 -317 360c0 227 138 362 317 362c178 0 317 -135 317 -362zM523 349c0 155 -65 240 -171 240c-107 0 -171 -85 -171 -240c0 -146 64 -238 171 -238c106 0 171 92 171 238zM163 750l129 166h120l129 -166h-132l-57 77
l-57 -77h-132z" />
    <glyph glyph-name="Otilde" unicode="&#xd5;" horiz-adv-x="704" 
d="M669 349c0 -228 -139 -360 -317 -360c-179 0 -317 132 -317 360c0 227 138 362 317 362c178 0 317 -135 317 -362zM523 349c0 155 -65 240 -171 240c-107 0 -171 -85 -171 -240c0 -146 64 -238 171 -238c106 0 171 92 171 238zM284 897c53 0 109 -38 133 -38
c18 0 27 8 27 37h101c0 -74 -24 -143 -114 -143c-51 0 -104 37 -132 37c-18 0 -35 -9 -35 -38h-105c0 75 43 145 125 145z" />
    <glyph glyph-name="Odieresis" unicode="&#xd6;" horiz-adv-x="704" 
d="M669 349c0 -228 -139 -360 -317 -360c-179 0 -317 132 -317 360c0 227 138 362 317 362c178 0 317 -135 317 -362zM523 349c0 155 -65 240 -171 240c-107 0 -171 -85 -171 -240c0 -146 64 -238 171 -238c106 0 171 92 171 238zM317 753h-135v129h135v-129zM521 753h-135
v129h135v-129z" />
    <glyph glyph-name="Omacron" unicode="&#x14c;" horiz-adv-x="704" 
d="M669 349c0 -228 -139 -360 -317 -360c-179 0 -317 132 -317 360c0 227 138 362 317 362c178 0 317 -135 317 -362zM523 349c0 155 -65 240 -171 240c-107 0 -171 -85 -171 -240c0 -146 64 -238 171 -238c106 0 171 92 171 238zM517 752h-331v100h331v-100z" />
    <glyph glyph-name="Obreve" unicode="&#x14e;" horiz-adv-x="704" 
d="M669 349c0 -228 -139 -360 -317 -360c-179 0 -317 132 -317 360c0 227 138 362 317 362c178 0 317 -135 317 -362zM523 349c0 155 -65 240 -171 240c-107 0 -171 -85 -171 -240c0 -146 64 -238 171 -238c106 0 171 92 171 238zM352 831c42 0 59 29 59 83h104
c0 -86 -40 -175 -163 -175s-163 89 -163 175h104c0 -54 17 -83 59 -83z" />
    <glyph glyph-name="Ohungarumlaut" unicode="&#x150;" horiz-adv-x="704" 
d="M669 349c0 -228 -139 -360 -317 -360c-179 0 -317 132 -317 360c0 227 138 362 317 362c178 0 317 -135 317 -362zM523 349c0 155 -65 240 -171 240c-107 0 -171 -85 -171 -240c0 -146 64 -238 171 -238c106 0 171 92 171 238zM433 916l-141 -166h-129l113 166h157z
M643 916l-141 -166h-129l113 166h157z" />
    <glyph glyph-name="Rcommaaccent" unicode="&#x156;" horiz-adv-x="644" 
d="M585 212c2 -82 4 -125 8 -155c5 -34 11 -49 16 -57h-145c-15 58 -9 126 -15 197c-4 51 -32 78 -89 78h-162v-275h-138v700h316c148 0 222 -88 222 -189c0 -72 -29 -137 -110 -172c57 -12 95 -55 97 -127zM461 491c0 62 -40 90 -110 90h-153v-189h130c45 0 77 8 100 27
c20 17 33 44 33 72zM392 -59v-146c0 -40 -3 -114 -114 -114h-27v61c33 0 45 3 45 28v23h-52v148h148z" />
    <glyph glyph-name="Racute" unicode="&#x154;" horiz-adv-x="644" 
d="M585 212c2 -82 4 -125 8 -155c5 -34 11 -49 16 -57h-145c-15 58 -9 126 -15 197c-4 51 -32 78 -89 78h-162v-275h-138v700h316c148 0 222 -88 222 -189c0 -72 -29 -137 -110 -172c57 -12 95 -55 97 -127zM461 491c0 62 -40 90 -110 90h-153v-189h130c45 0 77 8 100 27
c20 17 33 44 33 72zM485 916l-141 -166h-129l113 166h157z" />
    <glyph glyph-name="Rcaron" unicode="&#x158;" horiz-adv-x="644" 
d="M585 212c2 -82 4 -125 8 -155c5 -34 11 -49 16 -57h-145c-15 58 -9 126 -15 197c-4 51 -32 78 -89 78h-162v-275h-138v700h316c148 0 222 -88 222 -189c0 -72 -29 -137 -110 -172c57 -12 95 -55 97 -127zM461 491c0 62 -40 90 -110 90h-153v-189h130c45 0 77 8 100 27
c20 17 33 44 33 72zM249 750l-129 166h132l57 -77l57 77h132l-129 -166h-120z" />
    <glyph glyph-name="Scedilla" unicode="&#x15e;" horiz-adv-x="613" 
d="M423 -89c0 -41 -27 -100 -130 -100c-65 0 -102 17 -102 17l12 63c12 -4 49 -14 77 -14c45 0 65 11 65 36c0 33 -36 36 -111 36l14 44c-128 15 -215 89 -218 228h143c0 -77 49 -115 135 -115c59 0 141 16 141 95c0 115 -237 61 -348 159c-33 29 -59 76 -59 144
c0 138 123 207 258 207c140 0 265 -51 276 -219h-142c-4 38 -15 105 -131 105c-80 0 -120 -33 -120 -83c0 -105 180 -78 301 -137c57 -27 104 -72 104 -160c0 -136 -87 -210 -226 -225c32 -11 61 -35 61 -81z" />
    <glyph glyph-name="Scommaaccent" unicode="&#x218;" horiz-adv-x="613" 
d="M588 217c0 -154 -112 -228 -286 -228c-156 0 -268 75 -272 232h143c0 -77 49 -115 135 -115c59 0 141 16 141 95c0 115 -237 61 -348 159c-33 29 -59 76 -59 144c0 138 123 207 258 207c140 0 265 -51 276 -219h-142c-4 38 -15 105 -131 105c-80 0 -120 -33 -120 -83
c0 -105 180 -78 301 -137c57 -27 104 -72 104 -160zM379 -59v-146c0 -40 -3 -114 -114 -114h-27v61c33 0 45 3 45 28v23h-52v148h148z" />
    <glyph glyph-name="Sacute" unicode="&#x15a;" horiz-adv-x="613" 
d="M588 217c0 -154 -112 -228 -286 -228c-156 0 -268 75 -272 232h143c0 -77 49 -115 135 -115c59 0 141 16 141 95c0 115 -237 61 -348 159c-33 29 -59 76 -59 144c0 138 123 207 258 207c140 0 265 -51 276 -219h-142c-4 38 -15 105 -131 105c-80 0 -120 -33 -120 -83
c0 -105 180 -78 301 -137c57 -27 104 -72 104 -160zM498 916l-141 -166h-129l113 166h157z" />
    <glyph glyph-name="Scircumflex" unicode="&#x15c;" horiz-adv-x="613" 
d="M588 217c0 -154 -112 -228 -286 -228c-156 0 -268 75 -272 232h143c0 -77 49 -115 135 -115c59 0 141 16 141 95c0 115 -237 61 -348 159c-33 29 -59 76 -59 144c0 138 123 207 258 207c140 0 265 -51 276 -219h-142c-4 38 -15 105 -131 105c-80 0 -120 -33 -120 -83
c0 -105 180 -78 301 -137c57 -27 104 -72 104 -160zM120 750l129 166h120l129 -166h-132l-57 77l-57 -77h-132z" />
    <glyph glyph-name="Scaron" unicode="&#x160;" horiz-adv-x="613" 
d="M588 217c0 -154 -112 -228 -286 -228c-156 0 -268 75 -272 232h143c0 -77 49 -115 135 -115c59 0 141 16 141 95c0 115 -237 61 -348 159c-33 29 -59 76 -59 144c0 138 123 207 258 207c140 0 265 -51 276 -219h-142c-4 38 -15 105 -131 105c-80 0 -120 -33 -120 -83
c0 -105 180 -78 301 -137c57 -27 104 -72 104 -160zM249 750l-129 166h132l57 -77l57 77h132l-129 -166h-120z" />
    <glyph glyph-name="Tcaron" unicode="&#x164;" horiz-adv-x="600" 
d="M575 577h-206v-577h-138v577h-206v123h550v-123zM240 750l-129 166h132l57 -77l57 77h132l-129 -166h-120z" />
    <glyph glyph-name="Tcommaaccent" unicode="&#x162;" horiz-adv-x="600" 
d="M575 577h-206v-577h-138v577h-206v123h550v-123zM374 -59v-146c0 -40 -3 -114 -114 -114h-27v61c33 0 45 3 45 28v23h-52v148h148z" />
    <glyph glyph-name="Tbar" unicode="&#x166;" horiz-adv-x="600" 
d="M485 290h-116v-290h-138v290h-117v110h117v177h-206v123h550v-123h-206v-177h116v-110z" />
    <glyph glyph-name="Utilde" unicode="&#x168;" horiz-adv-x="663" 
d="M336 105c89 0 145 52 145 148v447h132v-442c0 -191 -121 -269 -281 -269c-159 0 -282 82 -282 273v438h138v-450c0 -96 60 -145 148 -145zM270 897c53 0 109 -38 133 -38c18 0 27 8 27 37h101c0 -74 -24 -143 -114 -143c-51 0 -104 37 -132 37c-18 0 -35 -9 -35 -38h-105
c0 75 43 145 125 145z" />
    <glyph glyph-name="Umacron" unicode="&#x16a;" horiz-adv-x="663" 
d="M336 105c89 0 145 52 145 148v447h132v-442c0 -191 -121 -269 -281 -269c-159 0 -282 82 -282 273v438h138v-450c0 -96 60 -145 148 -145zM490 752h-331v100h331v-100z" />
    <glyph glyph-name="Ubreve" unicode="&#x16c;" horiz-adv-x="663" 
d="M336 105c89 0 145 52 145 148v447h132v-442c0 -191 -121 -269 -281 -269c-159 0 -282 82 -282 273v438h138v-450c0 -96 60 -145 148 -145zM338 831c42 0 59 29 59 83h104c0 -86 -40 -175 -163 -175s-163 89 -163 175h104c0 -54 17 -83 59 -83z" />
    <glyph glyph-name="Uring" unicode="&#x16e;" horiz-adv-x="663" 
d="M336 105c89 0 145 52 145 148v447h132v-442c0 -191 -121 -269 -281 -269c-159 0 -282 82 -282 273v438h138v-450c0 -96 60 -145 148 -145zM186 879c0 80 64 141 147 141c82 0 146 -61 146 -141c0 -81 -64 -141 -146 -141c-83 0 -147 60 -147 141zM270 879
c0 -41 24 -67 63 -67c37 0 63 26 63 67c0 39 -26 66 -63 66c-39 0 -63 -27 -63 -66z" />
    <glyph glyph-name="Uhungarumlaut" unicode="&#x170;" horiz-adv-x="663" 
d="M336 105c89 0 145 52 145 148v447h132v-442c0 -191 -121 -269 -281 -269c-159 0 -282 82 -282 273v438h138v-450c0 -96 60 -145 148 -145zM403 916l-141 -166h-129l113 166h157zM613 916l-141 -166h-129l113 166h157z" />
    <glyph glyph-name="Uogonek" unicode="&#x172;" horiz-adv-x="663" 
d="M285 -8c-137 11 -235 98 -235 270v438h138v-450c0 -96 60 -145 148 -145c89 0 145 52 145 148v447h132v-442c0 -159 -84 -241 -204 -262c-48 -16 -73 -44 -73 -74c0 -33 27 -42 60 -42c18 0 44 2 55 5l-11 -71s-37 -5 -62 -5c-97 0 -131 48 -131 99c0 36 15 63 38 84z
" />
    <glyph glyph-name="Wcircumflex" unicode="&#x174;" horiz-adv-x="911" 
d="M901 700l-137 -700h-201l-102 516l-103 -516h-205l-143 700h150l105 -568l113 568h166l116 -568l98 568h143zM275 750l129 166h120l129 -166h-132l-57 77l-57 -77h-132z" />
    <glyph glyph-name="Wgrave" unicode="&#x1e80;" horiz-adv-x="911" 
d="M901 700l-137 -700h-201l-102 516l-103 -516h-205l-143 700h150l105 -568l113 568h166l116 -568l98 568h143zM451 750l-141 166h157l113 -166h-129z" />
    <glyph glyph-name="Wacute" unicode="&#x1e82;" horiz-adv-x="911" 
d="M901 700l-137 -700h-201l-102 516l-103 -516h-205l-143 700h150l105 -568l113 568h166l116 -568l98 568h143zM630 916l-141 -166h-129l113 166h157z" />
    <glyph glyph-name="Wdieresis" unicode="&#x1e84;" horiz-adv-x="911" 
d="M901 700l-137 -700h-201l-102 516l-103 -516h-205l-143 700h150l105 -568l113 568h166l116 -568l98 568h143zM428 753h-135v129h135v-129zM632 753h-135v129h135v-129z" />
    <glyph glyph-name="Ycircumflex" unicode="&#x176;" horiz-adv-x="621" 
d="M10 700h158l144 -305l146 305h153l-232 -448v-252h-137v252zM124 750l129 166h120l129 -166h-132l-57 77l-57 -77h-132z" />
    <glyph glyph-name="Ydieresis" unicode="&#x178;" horiz-adv-x="621" 
d="M10 700h158l144 -305l146 305h153l-232 -448v-252h-137v252zM277 753h-135v129h135v-129zM481 753h-135v129h135v-129z" />
    <glyph glyph-name="Ygrave" unicode="&#x1ef2;" horiz-adv-x="621" 
d="M10 700h158l144 -305l146 305h153l-232 -448v-252h-137v252zM306 750l-141 166h157l113 -166h-129z" />
    <glyph glyph-name="Zacute" unicode="&#x179;" horiz-adv-x="563" 
d="M543 0h-523v108l355 469h-347v123h510v-112l-349 -465h354v-123zM466 916l-141 -166h-129l113 166h157z" />
    <glyph glyph-name="Zdotaccent" unicode="&#x17b;" horiz-adv-x="563" 
d="M543 0h-523v108l355 469h-347v123h510v-112l-349 -465h354v-123zM360 750h-151v149h151v-149z" />
    <glyph glyph-name="Zcaron" unicode="&#x17d;" horiz-adv-x="563" 
d="M543 0h-523v108l355 469h-347v123h510v-112l-349 -465h354v-123zM226 750l-129 166h132l57 -77l57 77h132l-129 -166h-120z" />
    <glyph glyph-name="amacron" unicode="&#x101;" horiz-adv-x="576" 
d="M197 326l189 29v19c0 43 -18 71 -99 71c-102 0 -104 -57 -104 -75h-130c0 81 42 185 246 185c194 0 222 -97 222 -176v-302c0 -42 7 -77 7 -77h-138v55c-38 -39 -97 -62 -174 -62c-108 0 -186 62 -186 172c0 125 119 154 167 161zM386 223v29s-95 -14 -138 -22
c-22 -4 -43 -9 -58 -21c-13 -10 -21 -25 -21 -45c0 -15 6 -66 81 -66c44 0 83 16 104 37c26 27 32 62 32 88zM461 600h-331v100h331v-100z" />
    <glyph glyph-name="abreve" unicode="&#x103;" horiz-adv-x="576" 
d="M197 326l189 29v19c0 43 -18 71 -99 71c-102 0 -104 -57 -104 -75h-130c0 81 42 185 246 185c194 0 222 -97 222 -176v-302c0 -42 7 -77 7 -77h-138v55c-38 -39 -97 -62 -174 -62c-108 0 -186 62 -186 172c0 125 119 154 167 161zM386 223v29s-95 -14 -138 -22
c-22 -4 -43 -9 -58 -21c-13 -10 -21 -25 -21 -45c0 -15 6 -66 81 -66c44 0 83 16 104 37c26 27 32 62 32 88zM292 679c42 0 59 29 59 83h104c0 -86 -40 -175 -163 -175s-163 89 -163 175h104c0 -54 17 -83 59 -83z" />
    <glyph glyph-name="ccedilla" unicode="&#xe7;" horiz-adv-x="563" 
d="M408 -89c0 -41 -27 -100 -130 -100c-65 0 -102 17 -102 17l12 63c12 -4 49 -14 77 -14c45 0 65 11 65 36c0 33 -36 36 -111 36l15 48c-124 18 -204 109 -204 274c0 191 111 284 261 284c135 0 231 -72 245 -209h-138c-7 60 -45 97 -105 97c-71 0 -124 -49 -124 -169
s51 -169 121 -169c58 0 101 33 108 93h138c-9 -106 -80 -186 -203 -202c38 -8 75 -32 75 -85z" />
    <glyph glyph-name="cacute" unicode="&#x107;" horiz-adv-x="563" 
d="M285 -7c-153 0 -255 92 -255 278c0 191 111 284 261 284c135 0 231 -72 245 -209h-138c-7 60 -45 97 -105 97c-71 0 -124 -49 -124 -169s51 -169 121 -169c58 0 101 33 108 93h138c-10 -119 -99 -205 -251 -205zM466 764l-141 -166h-129l113 166h157z" />
    <glyph glyph-name="ccircumflex" unicode="&#x109;" horiz-adv-x="563" 
d="M285 -7c-153 0 -255 92 -255 278c0 191 111 284 261 284c135 0 231 -72 245 -209h-138c-7 60 -45 97 -105 97c-71 0 -124 -49 -124 -169s51 -169 121 -169c58 0 101 33 108 93h138c-10 -119 -99 -205 -251 -205zM103 598l129 166h120l129 -166h-132l-57 77l-57 -77h-132z
" />
    <glyph glyph-name="cdotaccent" unicode="&#x10b;" horiz-adv-x="563" 
d="M285 -7c-153 0 -255 92 -255 278c0 191 111 284 261 284c135 0 231 -72 245 -209h-138c-7 60 -45 97 -105 97c-71 0 -124 -49 -124 -169s51 -169 121 -169c58 0 101 33 108 93h138c-10 -119 -99 -205 -251 -205zM360 598h-151v149h151v-149z" />
    <glyph glyph-name="ccaron" unicode="&#x10d;" horiz-adv-x="563" 
d="M285 -7c-153 0 -255 92 -255 278c0 191 111 284 261 284c135 0 231 -72 245 -209h-138c-7 60 -45 97 -105 97c-71 0 -124 -49 -124 -169s51 -169 121 -169c58 0 101 33 108 93h138c-10 -119 -99 -205 -251 -205zM231 598l-129 166h132l57 -77l57 77h132l-129 -166h-120z
" />
    <glyph glyph-name="dcroat" unicode="&#x111;" horiz-adv-x="609" 
d="M604 596h-50v-596h-133v49c-32 -32 -89 -56 -151 -56c-109 0 -174 50 -208 118c-22 43 -32 94 -32 149c0 158 72 295 254 295c60 0 103 -18 135 -47v88h-126v75h126v69h135v-69h50v-75zM168 266c0 -69 17 -161 122 -161c43 0 76 14 97 40c23 28 32 71 32 127
c0 42 0 85 -18 117c-17 31 -50 53 -99 53c-100 0 -134 -78 -134 -176z" />
    <glyph glyph-name="egrave" unicode="&#xe8;" horiz-adv-x="580" 
d="M176 340h230c-4 75 -55 104 -110 104c-63 0 -113 -39 -120 -104zM292 -7c-153 0 -261 92 -261 278s116 284 266 284c165 0 252 -121 252 -283v-29h-378c0 -62 25 -138 124 -138c54 0 98 27 109 78l137 -3c-17 -109 -104 -187 -249 -187zM296 598l-141 166h157l113 -166
h-129z" />
    <glyph glyph-name="eacute" unicode="&#xe9;" horiz-adv-x="580" 
d="M176 340h230c-4 75 -55 104 -110 104c-63 0 -113 -39 -120 -104zM292 -7c-153 0 -261 92 -261 278s116 284 266 284c165 0 252 -121 252 -283v-29h-378c0 -62 25 -138 124 -138c54 0 98 27 109 78l137 -3c-17 -109 -104 -187 -249 -187zM473 764l-141 -166h-129l113 166
h157z" />
    <glyph glyph-name="ecircumflex" unicode="&#xea;" horiz-adv-x="580" 
d="M176 340h230c-4 75 -55 104 -110 104c-63 0 -113 -39 -120 -104zM292 -7c-153 0 -261 92 -261 278s116 284 266 284c165 0 252 -121 252 -283v-29h-378c0 -62 25 -138 124 -138c54 0 98 27 109 78l137 -3c-17 -109 -104 -187 -249 -187zM101 598l129 166h120l129 -166
h-132l-57 77l-57 -77h-132z" />
    <glyph glyph-name="edieresis" unicode="&#xeb;" horiz-adv-x="580" 
d="M176 340h230c-4 75 -55 104 -110 104c-63 0 -113 -39 -120 -104zM292 -7c-153 0 -261 92 -261 278s116 284 266 284c165 0 252 -121 252 -283v-29h-378c0 -62 25 -138 124 -138c54 0 98 27 109 78l137 -3c-17 -109 -104 -187 -249 -187zM257 601h-135v129h135v-129z
M461 601h-135v129h135v-129z" />
    <glyph glyph-name="emacron" unicode="&#x113;" horiz-adv-x="580" 
d="M176 340h230c-4 75 -55 104 -110 104c-63 0 -113 -39 -120 -104zM292 -7c-153 0 -261 92 -261 278s116 284 266 284c165 0 252 -121 252 -283v-29h-378c0 -62 25 -138 124 -138c54 0 98 27 109 78l137 -3c-17 -109 -104 -187 -249 -187zM455 600h-331v100h331v-100z" />
    <glyph glyph-name="ebreve" unicode="&#x115;" horiz-adv-x="580" 
d="M176 340h230c-4 75 -55 104 -110 104c-63 0 -113 -39 -120 -104zM292 -7c-153 0 -261 92 -261 278s116 284 266 284c165 0 252 -121 252 -283v-29h-378c0 -62 25 -138 124 -138c54 0 98 27 109 78l137 -3c-17 -109 -104 -187 -249 -187zM300 679c42 0 59 29 59 83h104
c0 -86 -40 -175 -163 -175s-163 89 -163 175h104c0 -54 17 -83 59 -83z" />
    <glyph glyph-name="edotaccent" unicode="&#x117;" horiz-adv-x="580" 
d="M176 340h230c-4 75 -55 104 -110 104c-63 0 -113 -39 -120 -104zM292 -7c-153 0 -261 92 -261 278s116 284 266 284c165 0 252 -121 252 -283v-29h-378c0 -62 25 -138 124 -138c54 0 98 27 109 78l137 -3c-17 -109 -104 -187 -249 -187zM367 598h-151v149h151v-149z" />
    <glyph glyph-name="eogonek" unicode="&#x119;" horiz-adv-x="580" 
d="M364 0c-34 -15 -74 -39 -74 -76c0 -33 27 -40 60 -40c18 0 44 2 55 5l-11 -71s-37 -5 -62 -5c-97 0 -131 48 -131 99c0 37 18 65 45 85c-127 10 -215 109 -215 274c0 186 116 284 266 284c165 0 252 -121 252 -283v-29h-378c0 -49 25 -138 125 -138c54 0 97 27 108 78
l137 -3c-14 -90 -75 -159 -177 -180zM176 340h230c-4 75 -55 104 -110 104c-63 0 -113 -39 -120 -104z" />
    <glyph glyph-name="ecaron" unicode="&#x11b;" horiz-adv-x="580" 
d="M176 340h230c-4 75 -55 104 -110 104c-63 0 -113 -39 -120 -104zM292 -7c-153 0 -261 92 -261 278s116 284 266 284c165 0 252 -121 252 -283v-29h-378c0 -62 25 -138 124 -138c54 0 98 27 109 78l137 -3c-17 -109 -104 -187 -249 -187zM234 598l-129 166h132l57 -77
l57 77h132l-129 -166h-120z" />
    <glyph glyph-name="gcircumflex" unicode="&#x11d;" horiz-adv-x="597" 
d="M542 548v-539c0 -103 -66 -208 -260 -208c-204 0 -234 107 -236 185h138c0 -19 0 -77 101 -77c81 0 122 29 122 107v70c-26 -32 -80 -63 -156 -63c-73 0 -221 44 -221 261c0 199 126 271 234 271c74 0 125 -29 147 -60v53h131zM407 286c0 60 -12 157 -119 157
c-67 0 -120 -53 -120 -157c0 -121 67 -151 116 -151c92 0 123 61 123 151zM111 598l129 166h120l129 -166h-132l-57 77l-57 -77h-132z" />
    <glyph glyph-name="gbreve" unicode="&#x11f;" horiz-adv-x="597" 
d="M542 548v-539c0 -103 -66 -208 -260 -208c-204 0 -234 107 -236 185h138c0 -19 0 -77 101 -77c81 0 122 29 122 107v70c-26 -32 -80 -63 -156 -63c-73 0 -221 44 -221 261c0 199 126 271 234 271c74 0 125 -29 147 -60v53h131zM407 286c0 60 -12 157 -119 157
c-67 0 -120 -53 -120 -157c0 -121 67 -151 116 -151c92 0 123 61 123 151zM301 679c42 0 59 29 59 83h104c0 -86 -40 -175 -163 -175s-163 89 -163 175h104c0 -54 17 -83 59 -83z" />
    <glyph glyph-name="gdotaccent" unicode="&#x121;" horiz-adv-x="597" 
d="M542 548v-539c0 -103 -66 -208 -260 -208c-204 0 -234 107 -236 185h138c0 -19 0 -77 101 -77c81 0 122 29 122 107v70c-26 -32 -80 -63 -156 -63c-73 0 -221 44 -221 261c0 199 126 271 234 271c74 0 125 -29 147 -60v53h131zM407 286c0 60 -12 157 -119 157
c-67 0 -120 -53 -120 -157c0 -121 67 -151 116 -151c92 0 123 61 123 151zM375 598h-151v149h151v-149z" />
    <glyph glyph-name="gcommaaccent" unicode="&#x123;" horiz-adv-x="597" 
d="M542 548v-539c0 -103 -66 -208 -260 -208c-204 0 -234 107 -236 185h138c0 -19 0 -77 101 -77c81 0 122 29 122 107v70c-26 -32 -80 -63 -156 -63c-73 0 -221 44 -221 261c0 199 126 271 234 271c74 0 125 -29 147 -60v53h131zM407 286c0 60 -12 157 -119 157
c-67 0 -120 -53 -120 -157c0 -121 67 -151 116 -151c92 0 123 61 123 151zM229 592v146c0 40 3 114 114 114h27v-61c-33 0 -45 -3 -45 -28v-23h52v-148h-148z" />
    <glyph glyph-name="hbar" unicode="&#x127;" horiz-adv-x="643" 
d="M240 309v-309h-135v596h-50v75h50v69h135v-69h126v-75h-126v-95c29 29 81 54 151 54c122 0 197 -69 197 -180v-375h-135v340c0 65 -36 100 -95 100c-66 0 -118 -43 -118 -131z" />
    <glyph glyph-name="hcircumflex" unicode="&#x125;" horiz-adv-x="594" 
d="M538 0h-135v340c0 65 -36 100 -95 100c-66 0 -118 -43 -118 -131v-309h-135v740h135v-250c34 37 84 65 154 65c122 0 194 -69 194 -180v-375zM113 780l129 166h120l129 -166h-132l-57 77l-57 -77h-132z" />
    <glyph glyph-name="dotlessj" unicode="&#x237;" horiz-adv-x="245" 
d="M-32 -189v116c9 -1 22 -2 39 -2c32 0 48 6 48 38v585h135v-599c0 -101 -38 -141 -164 -141c-25 0 -58 3 -58 3z" />
    <glyph glyph-name="kgreenlandic" unicode="&#x138;" horiz-adv-x="595" 
d="M406 548h172l-215 -235l227 -313h-162l-159 222l-79 -92v-130h-135v548h135v-241z" />
    <glyph glyph-name="kcommaaccent" unicode="&#x137;" horiz-adv-x="588" 
d="M399 548h169l-203 -209l213 -339h-159l-150 246l-79 -85v-161h-135v740h135v-414zM379 -59v-146c0 -40 -3 -114 -114 -114h-27v61c33 0 45 3 45 28v23h-52v148h148z" />
    <glyph glyph-name="ntilde" unicode="&#xf1;" horiz-adv-x="590" 
d="M538 0h-135v340c0 65 -36 100 -95 100c-66 0 -118 -43 -118 -131v-309h-135v548h133v-58c31 37 86 65 156 65c122 0 194 -69 194 -180v-375zM228 745c53 0 109 -38 133 -38c18 0 27 8 27 37h101c0 -74 -24 -143 -114 -143c-51 0 -104 37 -132 37c-18 0 -35 -9 -35 -38
h-105c0 75 43 145 125 145z" />
    <glyph glyph-name="nacute" unicode="&#x144;" horiz-adv-x="590" 
d="M538 0h-135v340c0 65 -36 100 -95 100c-66 0 -118 -43 -118 -131v-309h-135v548h133v-58c31 37 86 65 156 65c122 0 194 -69 194 -180v-375zM474 764l-141 -166h-129l113 166h157z" />
    <glyph glyph-name="ncommaaccent" unicode="&#x146;" horiz-adv-x="590" 
d="M538 0h-135v340c0 65 -36 100 -95 100c-66 0 -118 -43 -118 -131v-309h-135v548h133v-58c31 37 86 65 156 65c122 0 194 -69 194 -180v-375zM370 -59v-146c0 -40 -3 -114 -114 -114h-27v61c33 0 45 3 45 28v23h-52v148h148z" />
    <glyph glyph-name="ncaron" unicode="&#x148;" horiz-adv-x="590" 
d="M538 0h-135v340c0 65 -36 100 -95 100c-66 0 -118 -43 -118 -131v-309h-135v548h133v-58c31 37 86 65 156 65c122 0 194 -69 194 -180v-375zM246 598l-129 166h132l57 -77l57 77h132l-129 -166h-120z" />
    <glyph glyph-name="napostrophe" unicode="&#x149;" horiz-adv-x="590" 
d="M538 0h-135v340c0 65 -36 100 -95 100c-66 0 -118 -43 -118 -131v-309h-135v548h133v-58c31 37 86 65 156 65c122 0 194 -69 194 -180v-375zM203 858v-146c0 -40 -3 -114 -114 -114h-27v61c33 0 45 3 45 28v23h-52v148h148z" />
    <glyph glyph-name="omacron" unicode="&#x14d;" horiz-adv-x="586" 
d="M293 -7c-153 0 -263 95 -263 281s110 281 263 281s263 -95 263 -281s-110 -281 -263 -281zM293 443c-71 0 -125 -49 -125 -169s54 -169 125 -169s125 49 125 169s-54 169 -125 169zM448 600h-331v100h331v-100z" />
    <glyph glyph-name="obreve" unicode="&#x14f;" horiz-adv-x="586" 
d="M293 -7c-153 0 -263 95 -263 281s110 281 263 281s263 -95 263 -281s-110 -281 -263 -281zM293 443c-71 0 -125 -49 -125 -169s54 -169 125 -169s125 49 125 169s-54 169 -125 169zM293 679c42 0 59 29 59 83h104c0 -86 -40 -175 -163 -175s-163 89 -163 175h104
c0 -54 17 -83 59 -83z" />
    <glyph glyph-name="ohungarumlaut" unicode="&#x151;" horiz-adv-x="586" 
d="M293 -7c-153 0 -263 95 -263 281s110 281 263 281s263 -95 263 -281s-110 -281 -263 -281zM293 443c-71 0 -125 -49 -125 -169s54 -169 125 -169s125 49 125 169s-54 169 -125 169zM361 764l-141 -166h-129l113 166h157zM571 764l-141 -166h-129l113 166h157z" />
    <glyph glyph-name="racute" unicode="&#x155;" horiz-adv-x="397" 
d="M367 412h-38c-87 0 -139 -33 -139 -120v-292h-135v548h130v-81c25 50 76 81 142 81h40v-136zM387 764l-141 -166h-129l113 166h157z" />
    <glyph glyph-name="rcommaaccent" unicode="&#x157;" horiz-adv-x="377" 
d="M367 412h-38c-87 0 -139 -33 -139 -120v-292h-135v548h130v-81c25 50 76 81 142 81h40v-136zM196 -59v-146c0 -40 -3 -114 -114 -114h-27v61c33 0 45 3 45 28v23h-52v148h148z" />
    <glyph glyph-name="rcaron" unicode="&#x159;" horiz-adv-x="377" 
d="M367 412h-38c-87 0 -139 -33 -139 -120v-292h-135v548h130v-81c25 50 76 81 142 81h40v-136zM144 598l-129 166h132l57 -77l57 77h132l-129 -166h-120z" />
    <glyph glyph-name="sacute" unicode="&#x15b;" horiz-adv-x="539" 
d="M361 387c0 44 -38 67 -96 67c-37 0 -89 -11 -89 -56c0 -21 14 -37 38 -44c54 -16 151 -16 219 -51c43 -22 76 -60 76 -129c0 -83 -54 -181 -247 -181c-223 0 -232 153 -232 181h133c0 -56 50 -77 108 -77c74 0 101 29 101 64c0 42 -53 50 -115 58c-32 4 -65 9 -96 18
c-64 19 -120 58 -120 151c0 111 102 167 228 167c206 0 225 -128 225 -168h-133zM444 764l-141 -166h-129l113 166h157z" />
    <glyph glyph-name="scircumflex" unicode="&#x15d;" horiz-adv-x="539" 
d="M361 387c0 44 -38 67 -96 67c-37 0 -89 -11 -89 -56c0 -21 14 -37 38 -44c54 -16 151 -16 219 -51c43 -22 76 -60 76 -129c0 -83 -54 -181 -247 -181c-223 0 -232 153 -232 181h133c0 -56 50 -77 108 -77c74 0 101 29 101 64c0 42 -53 50 -115 58c-32 4 -65 9 -96 18
c-64 19 -120 58 -120 151c0 111 102 167 228 167c206 0 225 -128 225 -168h-133zM92 598l129 166h120l129 -166h-132l-57 77l-57 -77h-132z" />
    <glyph glyph-name="scedilla" unicode="&#x15f;" horiz-adv-x="539" 
d="M390 -89c0 -41 -31 -100 -134 -100c-66 0 -100 19 -100 19l12 60c12 -6 44 -13 72 -13c31 0 58 8 58 35c0 33 -44 37 -99 37l15 47c-176 20 -184 152 -184 178h133c0 -56 50 -77 108 -77c74 0 101 29 101 64c0 42 -53 50 -115 58c-32 4 -65 9 -96 18
c-64 19 -120 58 -120 151c0 111 102 167 228 167c206 0 225 -128 225 -168h-133c0 44 -38 67 -96 67c-37 0 -89 -11 -89 -56c0 -21 14 -37 38 -44c54 -16 151 -16 219 -51c43 -22 76 -60 76 -129c0 -75 -44 -162 -195 -178c38 -9 76 -33 76 -85z" />
    <glyph glyph-name="scaron" unicode="&#x161;" horiz-adv-x="539" 
d="M361 387c0 44 -38 67 -96 67c-37 0 -89 -11 -89 -56c0 -21 14 -37 38 -44c54 -16 151 -16 219 -51c43 -22 76 -60 76 -129c0 -83 -54 -181 -247 -181c-223 0 -232 153 -232 181h133c0 -56 50 -77 108 -77c74 0 101 29 101 64c0 42 -53 50 -115 58c-32 4 -65 9 -96 18
c-64 19 -120 58 -120 151c0 111 102 167 228 167c206 0 225 -128 225 -168h-133zM207 598l-129 166h132l57 -77l57 77h132l-129 -166h-120z" />
    <glyph glyph-name="scommaaccent" unicode="&#x219;" horiz-adv-x="539" 
d="M361 387c0 44 -38 67 -96 67c-37 0 -89 -11 -89 -56c0 -21 14 -37 38 -44c54 -16 151 -16 219 -51c43 -22 76 -60 76 -129c0 -83 -54 -181 -247 -181c-223 0 -232 153 -232 181h133c0 -56 50 -77 108 -77c74 0 101 29 101 64c0 42 -53 50 -115 58c-32 4 -65 9 -96 18
c-64 19 -120 58 -120 151c0 111 102 167 228 167c206 0 225 -128 225 -168h-133zM341 -59v-146c0 -40 -3 -114 -114 -114h-27v61c33 0 45 3 45 28v23h-52v148h148z" />
    <glyph glyph-name="tcaron" unicode="&#x165;" horiz-adv-x="371" 
d="M339 2c0 0 -44 -7 -101 -7c-106 0 -145 38 -145 128v312h-83v113h83v152h135v-152h123v-113h-123v-273c0 -41 11 -48 55 -48c26 0 56 2 56 2v-114zM425 858v-146c0 -40 -3 -114 -114 -114h-27v61c33 0 45 3 45 28v23h-52v148h148z" />
    <glyph glyph-name="tcommaaccent" unicode="&#x163;" horiz-adv-x="371" 
d="M339 2c0 0 -44 -7 -101 -7c-106 0 -145 38 -145 128v312h-83v113h83v152h135v-152h123v-113h-123v-273c0 -41 11 -48 55 -48c26 0 56 2 56 2v-114zM271 -59v-146c0 -40 -3 -114 -114 -114h-27v61c33 0 45 3 45 28v23h-52v148h148z" />
    <glyph glyph-name="tbar" unicode="&#x167;" horiz-adv-x="371" 
d="M339 2c0 0 -44 -7 -101 -7c-106 0 -145 38 -145 128v130h-83v113h83v69h-83v113h83v152h135v-152h123v-113h-123v-69h123v-113h-123v-91c0 -41 11 -48 55 -48c26 0 56 2 56 2v-114z" />
    <glyph glyph-name="ugrave" unicode="&#xf9;" horiz-adv-x="582" 
d="M527 0h-132v52c-20 -21 -69 -59 -157 -59c-122 0 -186 86 -186 187v368h135v-342c0 -70 36 -103 94 -103c76 0 111 54 111 122v323h135v-548zM273 598l-141 166h157l113 -166h-129z" />
    <glyph glyph-name="uacute" unicode="&#xfa;" horiz-adv-x="582" 
d="M527 0h-132v52c-20 -21 -69 -59 -157 -59c-122 0 -186 86 -186 187v368h135v-342c0 -70 36 -103 94 -103c76 0 111 54 111 122v323h135v-548zM471 764l-141 -166h-129l113 166h157z" />
    <glyph glyph-name="ucircumflex" unicode="&#xfb;" horiz-adv-x="582" 
d="M527 0h-132v52c-20 -21 -69 -59 -157 -59c-122 0 -186 86 -186 187v368h135v-342c0 -70 36 -103 94 -103c76 0 111 54 111 122v323h135v-548zM103 598l129 166h120l129 -166h-132l-57 77l-57 -77h-132z" />
    <glyph glyph-name="udieresis" unicode="&#xfc;" horiz-adv-x="582" 
d="M527 0h-132v52c-20 -21 -69 -59 -157 -59c-122 0 -186 86 -186 187v368h135v-342c0 -70 36 -103 94 -103c76 0 111 54 111 122v323h135v-548zM257 601h-135v129h135v-129zM461 601h-135v129h135v-129z" />
    <glyph glyph-name="utilde" unicode="&#x169;" horiz-adv-x="582" 
d="M527 0h-132v52c-20 -21 -69 -59 -157 -59c-122 0 -186 86 -186 187v368h135v-342c0 -70 36 -103 94 -103c76 0 111 54 111 122v323h135v-548zM224 745c53 0 109 -38 133 -38c18 0 27 8 27 37h101c0 -74 -24 -143 -114 -143c-51 0 -104 37 -132 37c-18 0 -35 -9 -35 -38
h-105c0 75 43 145 125 145z" />
    <glyph glyph-name="umacron" unicode="&#x16b;" horiz-adv-x="582" 
d="M527 0h-132v52c-20 -21 -69 -59 -157 -59c-122 0 -186 86 -186 187v368h135v-342c0 -70 36 -103 94 -103c76 0 111 54 111 122v323h135v-548zM447 600h-331v100h331v-100z" />
    <glyph glyph-name="ubreve" unicode="&#x16d;" horiz-adv-x="582" 
d="M527 0h-132v52c-20 -21 -69 -59 -157 -59c-122 0 -186 86 -186 187v368h135v-342c0 -70 36 -103 94 -103c76 0 111 54 111 122v323h135v-548zM295 679c42 0 59 29 59 83h104c0 -86 -40 -175 -163 -175s-163 89 -163 175h104c0 -54 17 -83 59 -83z" />
    <glyph glyph-name="uring" unicode="&#x16f;" horiz-adv-x="582" 
d="M527 0h-132v52c-20 -21 -69 -59 -157 -59c-122 0 -186 86 -186 187v368h135v-342c0 -70 36 -103 94 -103c76 0 111 54 111 122v323h135v-548zM145 727c0 80 64 141 147 141c82 0 146 -61 146 -141c0 -81 -64 -141 -146 -141c-83 0 -147 60 -147 141zM229 727
c0 -41 24 -67 63 -67c37 0 63 26 63 67c0 39 -26 66 -63 66c-39 0 -63 -27 -63 -66z" />
    <glyph glyph-name="uhungarumlaut" unicode="&#x171;" horiz-adv-x="582" 
d="M527 0h-132v52c-20 -21 -69 -59 -157 -59c-122 0 -186 86 -186 187v368h135v-342c0 -70 36 -103 94 -103c76 0 111 54 111 122v323h135v-548zM369 764l-141 -166h-129l113 166h157zM579 764l-141 -166h-129l113 166h157z" />
    <glyph glyph-name="uogonek" unicode="&#x173;" horiz-adv-x="582" 
d="M395 0v52c-20 -21 -69 -59 -157 -59c-122 0 -186 86 -186 187v368h135v-342c0 -70 36 -103 94 -103c76 0 111 54 111 122v323h135v-548c-47 -11 -86 -35 -86 -76c0 -33 27 -40 60 -40c18 0 44 2 55 5l-11 -71s-37 -5 -62 -5c-97 0 -131 48 -131 99c0 38 17 67 43 88z" />
    <glyph glyph-name="wcircumflex" unicode="&#x175;" horiz-adv-x="840" 
d="M485 548l104 -394l105 394h141l-156 -548h-166l-93 369l-93 -369h-166l-156 548h141l105 -394l104 394h130zM231 598l129 166h120l129 -166h-132l-57 77l-57 -77h-132z" />
    <glyph glyph-name="wgrave" unicode="&#x1e81;" horiz-adv-x="840" 
d="M485 548l104 -394l105 394h141l-156 -548h-166l-93 369l-93 -369h-166l-156 548h141l105 -394l104 394h130zM407 598l-141 166h157l113 -166h-129z" />
    <glyph glyph-name="wacute" unicode="&#x1e83;" horiz-adv-x="840" 
d="M485 548l104 -394l105 394h141l-156 -548h-166l-93 369l-93 -369h-166l-156 548h141l105 -394l104 394h130zM574 764l-141 -166h-129l113 166h157z" />
    <glyph glyph-name="wdieresis" unicode="&#x1e85;" horiz-adv-x="840" 
d="M485 548l104 -394l105 394h141l-156 -548h-166l-93 369l-93 -369h-166l-156 548h141l105 -394l104 394h130zM386 601h-135v129h135v-129zM590 601h-135v129h135v-129z" />
    <glyph glyph-name="yacute" unicode="&#xfd;" horiz-adv-x="528" 
d="M49 -192v118h81c29 0 45 8 53 38l10 36l-188 548h149l114 -381l114 381h141l-206 -611c-28 -84 -62 -129 -155 -129h-113zM434 764l-141 -166h-129l113 166h157z" />
    <glyph glyph-name="ydieresis" unicode="&#xff;" horiz-adv-x="528" 
d="M49 -192v118h81c29 0 45 8 53 38l10 36l-188 548h149l114 -381l114 381h141l-206 -611c-28 -84 -62 -129 -155 -129h-113zM229 601h-135v129h135v-129zM433 601h-135v129h135v-129z" />
    <glyph glyph-name="ycircumflex" unicode="&#x177;" horiz-adv-x="528" 
d="M49 -192v118h81c29 0 45 8 53 38l10 36l-188 548h149l114 -381l114 381h141l-206 -611c-28 -84 -62 -129 -155 -129h-113zM77 598l129 166h120l129 -166h-132l-57 77l-57 -77h-132z" />
    <glyph glyph-name="ygrave" unicode="&#x1ef3;" horiz-adv-x="528" 
d="M49 -192v118h81c29 0 45 8 53 38l10 36l-188 548h149l114 -381l114 381h141l-206 -611c-28 -84 -62 -129 -155 -129h-113zM250 598l-141 166h157l113 -166h-129z" />
    <glyph glyph-name="zacute" unicode="&#x17a;" horiz-adv-x="515" 
d="M485 0h-455v104l286 331h-279v113h443v-104l-286 -331h291v-113zM441 764l-141 -166h-129l113 166h157z" />
    <glyph glyph-name="zdotaccent" unicode="&#x17c;" horiz-adv-x="515" 
d="M485 0h-455v104l286 331h-279v113h443v-104l-286 -331h291v-113zM337 598h-151v149h151v-149z" />
    <glyph glyph-name="eng" unicode="&#x14b;" horiz-adv-x="593" 
d="M538 375v-426c0 -101 -38 -141 -164 -141c-25 0 -58 3 -58 3v116c9 -1 22 -2 39 -2c32 0 48 6 48 38v377c0 65 -36 100 -95 100c-66 0 -118 -43 -118 -131v-309h-135v548h135v-47c29 29 81 54 151 54c122 0 197 -69 197 -180z" />
    <glyph glyph-name="longs" unicode="&#x17f;" horiz-adv-x="307" 
d="M235 593v-593h-135v435h-90v113h90v64c0 88 49 135 148 135c54 0 101 -2 101 -2v-116s-29 1 -64 1c-26 0 -50 -3 -50 -37z" />
    <glyph glyph-name="lcommaaccent" unicode="&#x13c;" 
d="M196 0h-135v740h135v-740zM203 -59v-146c0 -40 -3 -114 -114 -114h-27v61c33 0 45 3 45 28v23h-52v148h148z" />
    <glyph glyph-name="zcaron" unicode="&#x17e;" horiz-adv-x="515" 
d="M485 0h-455v104l286 331h-279v113h443v-104l-286 -331h291v-113zM207 598l-129 166h132l57 -77l57 77h132l-129 -166h-120z" />
    <glyph glyph-name="lacute" unicode="&#x13a;" horiz-adv-x="245" 
d="M190 0h-135v740h135v-740zM259 946l-141 -166h-129l113 166h157z" />
    <glyph glyph-name="Eng" unicode="&#x14a;" horiz-adv-x="691" 
d="M486 -9l-288 511v-502h-138v700h175l259 -467v467h137v-719c0 -136 -70 -173 -174 -173c-53 0 -100 4 -111 7v117s40 -5 82 -5c54 0 58 22 58 64z" />
    <glyph glyph-name="Igrave" unicode="&#xcc;" 
d="M198 0h-138v700h138v-700zM135 750l-141 166h157l113 -166h-129z" />
    <glyph glyph-name="Iacute" unicode="&#xcd;" 
d="M198 0h-138v700h138v-700zM264 916l-141 -166h-129l113 166h157z" />
    <glyph glyph-name="Icircumflex" unicode="&#xce;" 
d="M198 0h-138v700h138v-700zM-60 750l129 166h120l129 -166h-132l-57 77l-57 -77h-132z" />
    <glyph glyph-name="Idieresis" unicode="&#xcf;" 
d="M198 0h-138v700h138v-700zM95 753h-135v129h135v-129zM299 753h-135v129h135v-129z" />
    <glyph glyph-name="Ntilde" unicode="&#xd1;" horiz-adv-x="691" 
d="M631 0h-168l-265 492v-492h-138v700h175l259 -488v488h137v-700zM273 897c53 0 109 -38 133 -38c18 0 27 8 27 37h101c0 -74 -24 -143 -114 -143c-51 0 -104 37 -132 37c-18 0 -35 -9 -35 -38h-105c0 75 43 145 125 145z" />
    <glyph glyph-name="Dcaron" unicode="&#x10e;" horiz-adv-x="685" 
d="M655 360c0 -95 -25 -187 -80 -255c-52 -63 -140 -105 -248 -105h-267v700h292c163 0 303 -98 303 -340zM512 355c0 192 -107 227 -193 227h-121v-464h121c86 0 193 45 193 237zM270 750l-129 166h132l57 -77l57 77h132l-129 -166h-120z" />
    <glyph glyph-name="Hbar" unicode="&#x126;" horiz-adv-x="761" 
d="M666 0h-137v290h-296v-290h-138v538h-70v95h70v67h138v-67h296v67h137v-67h70v-95h-70v-538zM233 415h296v123h-296v-123z" />
    <glyph glyph-name="Nacute" unicode="&#x143;" horiz-adv-x="691" 
d="M631 0h-168l-265 492v-492h-138v700h175l259 -488v488h137v-700zM523 916l-141 -166h-129l113 166h157z" />
    <glyph glyph-name="Ncommaaccent" unicode="&#x145;" horiz-adv-x="691" 
d="M631 0h-168l-265 492v-492h-138v700h175l259 -488v488h137v-700zM415 -59v-146c0 -40 -3 -114 -114 -114h-27v61c33 0 45 3 45 28v23h-52v148h148z" />
    <glyph glyph-name="Ncaron" unicode="&#x147;" horiz-adv-x="691" 
d="M631 0h-168l-265 492v-492h-138v700h175l259 -488v488h137v-700zM281 750l-129 166h132l57 -77l57 77h132l-129 -166h-120z" />
    <glyph glyph-name="Hcircumflex" unicode="&#x124;" horiz-adv-x="691" 
d="M631 0h-137v290h-296v-290h-138v700h138v-285h296v285h137v-700zM156 750l129 166h120l129 -166h-132l-57 77l-57 -77h-132z" />
    <glyph glyph-name="Aring" unicode="&#xc5;" horiz-adv-x="646" 
d="M10 0l201 670c-25 25 -40 60 -40 99c0 80 64 141 147 141c82 0 146 -61 146 -141c0 -37 -14 -70 -36 -95l208 -674h-151l-40 140h-253l-38 -140h-144zM411 259l-94 335l-92 -335h186zM255 769c0 -41 24 -67 63 -67c37 0 63 26 63 67c0 39 -26 66 -63 66
c-39 0 -63 -27 -63 -66z" />
    <glyph glyph-name="uni2215" unicode="&#x2215;" horiz-adv-x="0" 
 />
    <glyph glyph-name="less.alt" horiz-adv-x="485" 
d="M55 328v62l375 230v-136l-207 -125l207 -125v-136z" />
    <glyph glyph-name="greater.alt" horiz-adv-x="485" 
d="M430 390v-62l-375 -230v136l207 125l-207 125v136z" />
    <glyph glyph-name="arrow.up" horiz-adv-x="869" 
d="M85 452l350 350l349 -349v-321l-233 233v-601h-232v601l-234 -234v321z" />
    <glyph glyph-name="arrow.down" horiz-adv-x="869" 
d="M435 -236l-350 350v321l234 -234v601h232v-601l233 233v-321z" />
    <glyph glyph-name="arrowup.left" horiz-adv-x="986" 
d="M85 186v495h495l227 -227h-331l425 -425l-164 -164l-425 425v-331z" />
    <glyph glyph-name="arrowup.right" horiz-adv-x="986" 
d="M901 681v-495l-227 -227v331l-425 -425l-164 164l425 425h-331l227 227h495z" />
    <glyph glyph-name="arrowdown.left" horiz-adv-x="986" 
d="M85 -115v495l227 227v-331l425 425l164 -164l-425 -425h331l-227 -227h-495z" />
    <glyph glyph-name="arrowdown.right" horiz-adv-x="986" 
d="M901 380v-495h-495l-227 227h331l-425 425l164 164l425 -425v331z" />
    <glyph glyph-name="Ugrave" unicode="&#xd9;" horiz-adv-x="663" 
d="M336 105c89 0 145 52 145 148v447h132v-442c0 -191 -121 -269 -281 -269c-159 0 -282 82 -282 273v438h138v-450c0 -96 60 -145 148 -145zM322 750l-141 166h157l113 -166h-129z" />
    <glyph glyph-name="Uacute" unicode="&#xda;" horiz-adv-x="663" 
d="M336 105c89 0 145 52 145 148v447h132v-442c0 -191 -121 -269 -281 -269c-159 0 -282 82 -282 273v438h138v-450c0 -96 60 -145 148 -145zM504 916l-141 -166h-129l113 166h157z" />
    <glyph glyph-name="Ucircumflex" unicode="&#xdb;" horiz-adv-x="663" 
d="M336 105c89 0 145 52 145 148v447h132v-442c0 -191 -121 -269 -281 -269c-159 0 -282 82 -282 273v438h138v-450c0 -96 60 -145 148 -145zM142 750l129 166h120l129 -166h-132l-57 77l-57 -77h-132z" />
    <glyph glyph-name="Udieresis" unicode="&#xdc;" horiz-adv-x="663" 
d="M336 105c89 0 145 52 145 148v447h132v-442c0 -191 -121 -269 -281 -269c-159 0 -282 82 -282 273v438h138v-450c0 -96 60 -145 148 -145zM297 753h-135v129h135v-129zM501 753h-135v129h135v-129z" />
    <glyph glyph-name="Yacute" unicode="&#xdd;" horiz-adv-x="621" 
d="M10 700h158l144 -305l146 305h153l-232 -448v-252h-137v252zM491 916l-141 -166h-129l113 166h157z" />
    <glyph glyph-name="adieresis" unicode="&#xe4;" horiz-adv-x="576" 
d="M197 326l189 29v19c0 43 -18 71 -99 71c-102 0 -104 -57 -104 -75h-130c0 81 42 185 246 185c194 0 222 -97 222 -176v-302c0 -42 7 -77 7 -77h-138v55c-38 -39 -97 -62 -174 -62c-108 0 -186 62 -186 172c0 125 119 154 167 161zM386 223v29s-95 -14 -138 -22
c-22 -4 -43 -9 -58 -21c-13 -10 -21 -25 -21 -45c0 -15 6 -66 81 -66c44 0 83 16 104 37c26 27 32 62 32 88zM262 601h-135v129h135v-129zM466 601h-135v129h135v-129z" />
    <glyph glyph-name="atilde" unicode="&#xe3;" horiz-adv-x="576" 
d="M197 326l189 29v19c0 43 -18 71 -99 71c-102 0 -104 -57 -104 -75h-130c0 81 42 185 246 185c194 0 222 -97 222 -176v-302c0 -42 7 -77 7 -77h-138v55c-38 -39 -97 -62 -174 -62c-108 0 -186 62 -186 172c0 125 119 154 167 161zM386 223v29s-95 -14 -138 -22
c-22 -4 -43 -9 -58 -21c-13 -10 -21 -25 -21 -45c0 -15 6 -66 81 -66c44 0 83 16 104 37c26 27 32 62 32 88zM220 745c53 0 109 -38 133 -38c18 0 27 8 27 37h101c0 -74 -24 -143 -114 -143c-51 0 -104 37 -132 37c-18 0 -35 -9 -35 -38h-105c0 75 43 145 125 145z" />
    <glyph glyph-name="acircumflex" unicode="&#xe2;" horiz-adv-x="576" 
d="M197 326l189 29v19c0 43 -18 71 -99 71c-102 0 -104 -57 -104 -75h-130c0 81 42 185 246 185c194 0 222 -97 222 -176v-302c0 -42 7 -77 7 -77h-138v55c-38 -39 -97 -62 -174 -62c-108 0 -186 62 -186 172c0 125 119 154 167 161zM386 223v29s-95 -14 -138 -22
c-22 -4 -43 -9 -58 -21c-13 -10 -21 -25 -21 -45c0 -15 6 -66 81 -66c44 0 83 16 104 37c26 27 32 62 32 88zM109 598l129 166h120l129 -166h-132l-57 77l-57 -77h-132z" />
    <glyph glyph-name="aacute" unicode="&#xe1;" horiz-adv-x="576" 
d="M197 326l189 29v19c0 43 -18 71 -99 71c-102 0 -104 -57 -104 -75h-130c0 81 42 185 246 185c194 0 222 -97 222 -176v-302c0 -42 7 -77 7 -77h-138v55c-38 -39 -97 -62 -174 -62c-108 0 -186 62 -186 172c0 125 119 154 167 161zM386 223v29s-95 -14 -138 -22
c-22 -4 -43 -9 -58 -21c-13 -10 -21 -25 -21 -45c0 -15 6 -66 81 -66c44 0 83 16 104 37c26 27 32 62 32 88zM464 764l-141 -166h-129l113 166h157z" />
    <glyph glyph-name="agrave" unicode="&#xe0;" horiz-adv-x="576" 
d="M197 326l189 29v19c0 43 -18 71 -99 71c-102 0 -104 -57 -104 -75h-130c0 81 42 185 246 185c194 0 222 -97 222 -176v-302c0 -42 7 -77 7 -77h-138v55c-38 -39 -97 -62 -174 -62c-108 0 -186 62 -186 172c0 125 119 154 167 161zM386 223v29s-95 -14 -138 -22
c-22 -4 -43 -9 -58 -21c-13 -10 -21 -25 -21 -45c0 -15 6 -66 81 -66c44 0 83 16 104 37c26 27 32 62 32 88zM294 598l-141 166h157l113 -166h-129z" />
    <glyph glyph-name="aring" unicode="&#xe5;" horiz-adv-x="576" 
d="M197 326l189 29v19c0 43 -18 71 -99 71c-102 0 -104 -57 -104 -75h-130c0 81 42 185 246 185c194 0 222 -97 222 -176v-302c0 -42 7 -77 7 -77h-138v55c-38 -39 -97 -62 -174 -62c-108 0 -186 62 -186 172c0 125 119 154 167 161zM386 223v29s-95 -14 -138 -22
c-22 -4 -43 -9 -58 -21c-13 -10 -21 -25 -21 -45c0 -15 6 -66 81 -66c44 0 83 16 104 37c26 27 32 62 32 88zM151 727c0 80 64 141 147 141c82 0 146 -61 146 -141c0 -81 -64 -141 -146 -141c-83 0 -147 60 -147 141zM235 727c0 -41 24 -67 63 -67c37 0 63 26 63 67
c0 39 -26 66 -63 66c-39 0 -63 -27 -63 -66z" />
    <glyph glyph-name="igrave" unicode="&#xec;" horiz-adv-x="245" 
d="M190 0h-135v548h135v-548zM129 598l-141 166h157l113 -166h-129z" />
    <glyph glyph-name="iacute" unicode="&#xed;" horiz-adv-x="245" 
d="M190 0h-135v548h135v-548zM258 764l-141 -166h-129l113 166h157z" />
    <glyph glyph-name="icircumflex" unicode="&#xee;" horiz-adv-x="245" 
d="M190 0h-135v548h135v-548zM-66 598l129 166h120l129 -166h-132l-57 77l-57 -77h-132z" />
    <glyph glyph-name="idieresis" unicode="&#xef;" horiz-adv-x="245" 
d="M190 0h-135v548h135v-548zM88 601h-135v129h135v-129zM292 601h-135v129h135v-129z" />
    <glyph glyph-name="odieresis" unicode="&#xf6;" horiz-adv-x="586" 
d="M293 -7c-153 0 -263 95 -263 281s110 281 263 281s263 -95 263 -281s-110 -281 -263 -281zM293 443c-71 0 -125 -49 -125 -169s54 -169 125 -169s125 49 125 169s-54 169 -125 169zM258 601h-135v129h135v-129zM462 601h-135v129h135v-129z" />
    <glyph glyph-name="otilde" unicode="&#xf5;" horiz-adv-x="586" 
d="M293 -7c-153 0 -263 95 -263 281s110 281 263 281s263 -95 263 -281s-110 -281 -263 -281zM293 443c-71 0 -125 -49 -125 -169s54 -169 125 -169s125 49 125 169s-54 169 -125 169zM225 745c53 0 109 -38 133 -38c18 0 27 8 27 37h101c0 -74 -24 -143 -114 -143
c-51 0 -104 37 -132 37c-18 0 -35 -9 -35 -38h-105c0 75 43 145 125 145z" />
    <glyph glyph-name="ocircumflex" unicode="&#xf4;" horiz-adv-x="586" 
d="M293 -7c-153 0 -263 95 -263 281s110 281 263 281s263 -95 263 -281s-110 -281 -263 -281zM293 443c-71 0 -125 -49 -125 -169s54 -169 125 -169s125 49 125 169s-54 169 -125 169zM104 598l129 166h120l129 -166h-132l-57 77l-57 -77h-132z" />
    <glyph glyph-name="oacute" unicode="&#xf3;" horiz-adv-x="586" 
d="M293 -7c-153 0 -263 95 -263 281s110 281 263 281s263 -95 263 -281s-110 -281 -263 -281zM293 443c-71 0 -125 -49 -125 -169s54 -169 125 -169s125 49 125 169s-54 169 -125 169zM494 764l-141 -166h-129l113 166h157z" />
    <glyph glyph-name="ograve" unicode="&#xf2;" horiz-adv-x="586" 
d="M293 -7c-153 0 -263 95 -263 281s110 281 263 281s263 -95 263 -281s-110 -281 -263 -281zM293 443c-71 0 -125 -49 -125 -169s54 -169 125 -169s125 49 125 169s-54 169 -125 169zM299 598l-141 166h157l113 -166h-129z" />
    <glyph glyph-name="Aogonek" unicode="&#x104;" horiz-adv-x="646" 
d="M155 0h-145l210 700h200l216 -700c-49 -6 -107 -22 -107 -74c0 -33 27 -42 60 -42c18 0 44 2 55 5l-11 -71s-37 -5 -62 -5c-97 0 -131 50 -131 101c0 39 18 68 44 87l-39 139h-253zM411 259l-94 335l-92 -335h186z" />
    <glyph glyph-name="aogonek" unicode="&#x105;" horiz-adv-x="576" 
d="M528 0c-64 -12 -92 -38 -92 -76c0 -33 27 -40 60 -40c18 0 44 2 55 5l-11 -71s-37 -5 -62 -5c-97 0 -131 48 -131 99c0 38 17 67 43 88v55c-38 -39 -97 -62 -174 -62c-108 0 -186 62 -186 172c0 125 119 154 167 161l189 29v19c0 43 -18 71 -99 71
c-102 0 -104 -57 -104 -75h-130c0 81 42 185 246 185c194 0 222 -97 222 -176v-302c0 -42 7 -77 7 -77zM386 223v29s-95 -14 -138 -22c-22 -4 -43 -9 -58 -21c-13 -10 -21 -25 -21 -45c0 -15 6 -66 81 -66c44 0 83 16 104 37c26 27 32 62 32 88z" />
    <glyph glyph-name="Itilde" unicode="&#x128;" 
d="M198 0h-138v700h138v-700zM61 897c53 0 109 -38 133 -38c18 0 27 8 27 37h101c0 -74 -24 -143 -114 -143c-51 0 -104 37 -132 37c-18 0 -35 -9 -35 -38h-105c0 75 43 145 125 145z" />
    <glyph glyph-name="itilde" unicode="&#x129;" horiz-adv-x="245" 
d="M190 0h-135v548h135v-548zM55 745c53 0 109 -38 133 -38c18 0 27 8 27 37h101c0 -74 -24 -143 -114 -143c-51 0 -104 37 -132 37c-18 0 -35 -9 -35 -38h-105c0 75 43 145 125 145z" />
    <glyph glyph-name="Imacron" unicode="&#x12a;" 
d="M198 0h-138v700h138v-700zM295 752h-331v100h331v-100z" />
    <glyph glyph-name="imacron" unicode="&#x12b;" horiz-adv-x="245" 
d="M190 0h-135v548h135v-548zM288 600h-331v100h331v-100z" />
    <glyph glyph-name="Ibreve" unicode="&#x12c;" 
d="M198 0h-138v700h138v-700zM129 831c42 0 59 29 59 83h104c0 -86 -40 -175 -163 -175s-163 89 -163 175h104c0 -54 17 -83 59 -83z" />
    <glyph glyph-name="ibreve" unicode="&#x12d;" horiz-adv-x="245" 
d="M190 0h-135v548h135v-548zM123 679c42 0 59 29 59 83h104c0 -86 -40 -175 -163 -175s-163 89 -163 175h104c0 -54 17 -83 59 -83z" />
    <glyph glyph-name="Iogonek" unicode="&#x12e;" 
d="M198 700v-700c-31 -6 -93 -30 -93 -74c0 -33 27 -42 60 -42c18 0 44 2 55 5l-11 -71s-37 -5 -62 -5c-97 0 -131 48 -131 99c0 39 22 72 44 88v700h138z" />
    <glyph glyph-name="iogonek" unicode="&#x12f;" horiz-adv-x="245" 
d="M55 548v-548c-26 -21 -43 -50 -43 -88c0 -51 34 -99 131 -99c25 0 62 5 62 5l11 71c-11 -3 -37 -5 -55 -5c-33 0 -60 10 -60 43c0 26 29 61 89 73v548h-135zM190 611h-135v129h135v-129z" />
    <glyph glyph-name="Idotaccent" unicode="&#x130;" 
d="M198 0h-138v700h138v-700zM205 750h-151v149h151v-149z" />
    <glyph glyph-name="IJ" unicode="&#x132;" horiz-adv-x="636" 
d="M198 0h-138v700h138v-700zM581 700v-529c0 -136 -63 -173 -167 -173c-53 0 -100 4 -111 7v117s40 -5 82 -5c45 0 58 11 58 53v530h138z" />
    <glyph glyph-name="Jcircumflex" unicode="&#x134;" horiz-adv-x="358" 
d="M303 700v-529c0 -136 -63 -173 -167 -173c-53 0 -100 4 -111 7v117s40 -5 82 -5c45 0 58 11 58 53v530h138zM41 750l129 166h120l129 -166h-132l-57 77l-57 -77h-132z" />
    <glyph glyph-name="jcircumflex" unicode="&#x135;" horiz-adv-x="245" 
d="M-32 -189v116c9 -1 22 -2 39 -2c32 0 48 6 48 38v585h135v-599c0 -101 -38 -141 -164 -141c-25 0 -58 3 -58 3zM-66 598l129 166h120l129 -166h-132l-57 77l-57 -77h-132z" />
    <glyph glyph-name="ij" unicode="&#x133;" horiz-adv-x="480" 
d="M190 611h-135v129h135v-129zM190 0h-135v548h135v-548zM203 -189v115c9 -1 22 -1 39 -1c32 0 48 6 48 38v585h135v-599c0 -101 -38 -141 -164 -141c-25 0 -58 3 -58 3zM425 611h-135v129h135v-129z" />
    <glyph glyph-name="Ccedilla" unicode="&#xc7;" horiz-adv-x="666" 
d="M467 -89c0 -41 -27 -100 -130 -100c-65 0 -102 17 -102 17l12 63c12 -4 49 -14 77 -14c45 0 65 11 65 36c0 33 -36 36 -111 36l14 44c-215 28 -257 223 -257 355c0 167 81 363 321 363c210 0 276 -147 277 -236h-145c-2 50 -40 114 -138 114c-107 0 -169 -83 -169 -243
c0 -152 66 -235 171 -235c112 0 139 84 140 119h144c-8 -102 -77 -216 -232 -237c33 -11 63 -35 63 -82z" />
    <glyph glyph-name="ldot" unicode="&#x140;" horiz-adv-x="503" 
d="M190 0h-135v740h135v-740zM448 278h-148v150h148v-150z" />
    <glyph glyph-name="lcaron" unicode="&#x13e;" horiz-adv-x="503" 
d="M190 0h-135v740h135v-740zM448 700v-146c0 -40 -3 -114 -114 -114h-27v61c33 0 45 3 45 28v23h-52v148h148z" />
    <glyph glyph-name="dcaron" unicode="&#x10f;" horiz-adv-x="867" 
d="M284 555c60 0 103 -18 135 -47v232h135v-740h-133v49c-32 -32 -89 -56 -151 -56c-109 0 -174 50 -208 118c-22 43 -32 96 -32 151c0 158 72 293 254 293zM168 266c0 -69 17 -161 122 -161c43 0 76 14 97 40c23 28 32 71 32 127c0 42 0 85 -18 117c-17 31 -50 53 -99 53
c-100 0 -134 -78 -134 -176zM812 700v-146c0 -40 -3 -114 -114 -114h-27v61c33 0 45 3 45 28v23h-52v148h148z" />
    </font>
</defs>
</svg>
